<?xml version="1.0" standalone="no"?>
<!DOCTYPE svg PUBLIC "-//W3C//DTD SVG 1.1//EN" "http://www.w3.org/Graphics/SVG/1.1/DTD/svg11.dtd" >
<svg xmlns="http://www.w3.org/2000/svg">
<metadata>Generated by IcoMoon</metadata>
<defs>
<font id="icomoon" horiz-adv-x="1024">
<font-face units-per-em="1024" ascent="960" descent="-64" />
<missing-glyph horiz-adv-x="1024" />
<glyph unicode="&#x20;" horiz-adv-x="512" d="" />
<glyph unicode="&#xe900;" glyph-name="add_shopping_cart" d="M306 308.667q0-10 10-10h494v-86h-512q-34 0-59 26t-25 60q0 20 10 40l58 106-154 324h-86v84h140q40-84 80-170 10-18 46-95t56-119h300q150 272 164 300l74-42-164-298q-24-44-74-44h-318l-38-70zM726 170.667q34 0 59-26t25-60-25-59-59-25-60 25-26 59 26 60 60 26zM298 170.667q34 0 60-26t26-60-26-59-60-25-59 25-25 59 25 60 59 26zM470 554.667v128h-128v86h128v128h84v-128h128v-86h-128v-128h-84z" />
<glyph unicode="&#xe901;" glyph-name="shopping-cart" d="M469.333 42.667c0 23.552-9.6 44.928-25.003 60.331s-36.779 25.003-60.331 25.003-44.928-9.6-60.331-25.003-25.003-36.779-25.003-60.331 9.6-44.928 25.003-60.331 36.779-25.003 60.331-25.003 44.928 9.6 60.331 25.003 25.003 36.779 25.003 60.331zM938.667 42.667c0 23.552-9.6 44.928-25.003 60.331s-36.779 25.003-60.331 25.003-44.928-9.6-60.331-25.003-25.003-36.779-25.003-60.331 9.6-44.928 25.003-60.331 36.779-25.003 60.331-25.003 44.928 9.6 60.331 25.003 25.003 36.779 25.003 60.331zM308.096 640h621.653l-58.496-306.816c-1.963-9.728-7.083-18.133-14.165-24.235-7.68-6.656-17.621-10.496-29.355-10.283h-415.317c-9.899-0.128-19.243 3.029-26.709 8.661-8.107 6.101-14.037 14.976-16.171 25.728zM42.667 853.334h135.68l36.181-180.864c4.608-18.645 21.419-32.469 41.472-32.469h52.096l-17.067 85.333h-35.029c-23.552 0-42.667-19.115-42.667-42.667 0-2.261 0.171-4.48 0.512-6.613 0.171-1.195 0.427-2.432 0.725-3.584l71.296-356.139c6.357-32.043 24.32-59.008 48.64-77.269 22.229-16.725 49.92-26.155 79.104-25.728h414.123c31.915-0.64 62.080 11.136 85.12 31.019 21.077 18.176 36.181 43.221 42.027 71.808l68.352 358.485c4.395 23.168-10.752 45.483-33.92 49.92-2.773 0.555-5.547 0.811-7.979 0.768h-690.347l-35.84 179.029c-4.011 19.712-21.205 34.304-41.813 34.304h-170.667c-23.552 0-42.667-19.115-42.667-42.667s19.115-42.667 42.667-42.667z" />
<glyph unicode="&#xe902;" glyph-name="printer" d="M725.333 597.334h-426.667v213.333h426.667zM213.333 128v-128c0-23.552 19.115-42.667 42.667-42.667h512c23.552 0 42.667 19.115 42.667 42.667v128h42.667c35.328 0 67.413 14.379 90.496 37.504s37.504 55.168 37.504 90.496v213.333c0 35.328-14.379 67.413-37.504 90.496s-55.168 37.504-90.496 37.504h-42.667v256c0 23.552-19.115 42.667-42.667 42.667h-512c-23.552 0-42.667-19.115-42.667-42.667v-256h-42.667c-35.328 0-67.413-14.379-90.496-37.504s-37.504-55.168-37.504-90.496v-213.333c0-35.328 14.379-67.413 37.504-90.496s55.168-37.504 90.496-37.504zM256 384c-23.552 0-42.667-19.115-42.667-42.667v-128h-42.667c-11.776 0-22.4 4.736-30.165 12.501s-12.501 18.389-12.501 30.165v213.333c0 11.776 4.736 22.4 12.501 30.165s18.389 12.501 30.165 12.501h682.667c11.776 0 22.4-4.736 30.165-12.501s12.501-18.389 12.501-30.165v-213.333c0-11.776-4.736-22.4-12.501-30.165s-18.389-12.501-30.165-12.501h-42.667v128c0 23.552-19.115 42.667-42.667 42.667zM298.667 298.667h426.667v-256h-426.667z" />
<glyph unicode="&#xe903;" glyph-name="youtube, brand, social" d="M1013.8 652.8c0 0-10 70.6-40.8 101.6-39 40.8-82.6 41-102.6 43.4-143.2 10.4-358.2 10.4-358.2 10.4h-0.4c0 0-215 0-358.2-10.4-20-2.4-63.6-2.6-102.6-43.4-30.8-31-40.6-101.6-40.6-101.6s-10.2-82.8-10.2-165.8v-77.6c0-82.8 10.2-165.8 10.2-165.8s10-70.6 40.6-101.6c39-40.8 90.2-39.4 113-43.8 82-7.8 348.2-10.2 348.2-10.2s215.2 0.4 358.4 10.6c20 2.4 63.6 2.6 102.6 43.4 30.8 31 40.8 101.6 40.8 101.6s10.2 82.8 10.2 165.8v77.6c-0.2 82.8-10.4 165.8-10.4 165.8zM406.2 315.2v287.8l276.6-144.4-276.6-143.4z" />
<glyph unicode="&#xe904;" glyph-name="heart" d="M748.005 881.558c-85.18 0-159.853-37.982-215.942-109.842-7.48-9.584-14.148-19.172-20.058-28.458-5.91 9.288-12.578 18.874-20.058 28.458-56.090 71.86-130.762 109.842-215.942 109.842-160.912 0-276-134.734-276-296.408 0-184.866 151.514-359.092 491.274-564.923 6.37-3.857 13.548-5.782 20.726-5.782s14.356 1.925 20.726 5.782c339.759 205.824 491.277 380.055 491.277 564.921 0 161.59-114.995 296.41-276.002 296.41zM838.321 354.961c-70.738-78.924-177.627-162.025-326.317-253.646-148.69 91.621-255.58 174.722-326.314 253.644-71.116 79.352-105.686 154.648-105.686 230.19 0 116.408 78.668 216.41 196 216.41 59.752 0 110.7-25.98 151.43-77.221 32.568-40.978 46.29-83.291 46.387-83.594 5.209-16.71 20.681-28.092 38.186-28.092s32.976 11.38 38.186 28.092c0.126 0.404 13.436 41.398 44.934 81.75 40.95 52.464 92.387 79.066 152.878 79.066 117.453 0 196-100.098 196-216.41 0-75.542-34.57-150.838-105.684-230.19z" />
<glyph unicode="&#xe905;" glyph-name="instagram" d="M482.462 683.846c-44.512 0-86.154-11.487-124.923-34.462-37.333-21.539-67.487-51.692-90.462-90.462-21.538-37.333-32.307-78.256-32.307-122.769s10.769-86.154 32.307-124.923c22.975-37.333 53.128-67.487 90.462-90.462 38.769-21.538 80.411-32.307 124.923-32.307s85.436 10.769 122.769 32.307c38.769 22.975 68.923 53.128 90.462 90.462 22.975 38.769 34.462 80.411 34.462 124.923s-11.487 85.435-34.462 122.769c-21.539 38.769-51.692 68.923-90.462 90.462-37.333 22.975-78.256 34.462-122.769 34.462zM482.462 274.616c-44.512 0-82.564 15.795-114.154 47.384s-47.384 69.641-47.384 114.154c0 44.512 15.795 82.564 47.384 114.154s69.641 47.384 114.154 47.384c44.512 0 82.564-15.795 114.154-47.384s47.384-69.641 47.384-114.154c0-44.512-15.795-82.564-47.384-114.154s-69.641-47.384-114.154-47.384zM799.074 694.615c-1.434-15.795-7.893-29.436-19.382-40.923-10.052-11.488-22.975-17.231-38.769-17.231s-29.436 5.743-40.923 17.231c-11.487 11.487-17.231 25.128-17.231 40.923s5.744 29.436 17.231 40.923c11.487 11.487 25.128 17.231 40.923 17.231s29.436-5.744 40.923-17.231c11.486-11.487 17.228-25.128 17.228-40.923zM962.773 636.462c-2.875 41.641-9.334 77.538-19.385 107.693-12.926 35.897-33.028 66.769-60.314 92.615-25.844 27.282-56.714 47.384-92.609 60.307-30.158 10.051-66.055 15.795-107.696 17.231-40.205 2.872-106.974 4.308-200.308 4.308s-160.821-1.436-202.461-4.308c-40.205-1.436-75.385-7.18-105.539-17.231-35.898-12.923-67.487-33.026-94.769-60.307-25.846-25.847-45.231-56.719-58.154-92.615-10.051-30.154-16.513-66.052-19.385-107.693-1.436-40.205-2.154-106.974-2.154-200.308s0.718-160.821 2.154-202.461c2.872-40.205 9.333-75.382 19.385-105.535 12.923-35.903 32.308-67.489 58.154-94.775 27.282-25.844 58.871-44.512 94.769-55.997 30.154-11.485 65.334-17.952 105.539-19.385 41.641-2.875 109.128-4.309 202.461-4.309s160.102 1.434 200.308 4.309c41.641 1.434 77.538 7.176 107.696 17.227 35.895 12.926 66.765 32.311 92.609 58.155 27.286 27.286 47.388 58.872 60.314 94.775 10.051 30.153 15.793 65.33 17.227 105.535 2.875 41.641 4.309 109.128 4.309 202.461s-0.717 160.102-2.15 200.308zM859.388 151.843c-17.235-43.071-48.104-73.949-92.618-92.609-22.975-8.617-61.744-14.36-116.308-17.235-30.154-1.434-74.666-2.15-133.538-2.15h-68.923c-57.436 0-101.949 0.717-133.538 2.15-53.128 2.875-91.898 8.617-116.308 17.235-43.077 17.227-73.949 48.096-92.615 92.609-8.615 24.413-14.359 63.182-17.231 116.311-1.436 31.59-2.154 76.102-2.154 133.538v68.923c0 57.436 0.718 101.949 2.154 133.538 2.872 54.564 8.616 93.334 17.231 116.307 17.231 44.513 48.103 75.385 92.615 92.616 24.411 8.615 63.18 14.359 116.308 17.231 31.59 1.435 76.102 2.154 133.538 2.154h68.923c57.436 0 101.949-0.718 133.538-2.154 54.564-2.872 93.334-8.616 116.308-17.231 44.514-17.231 75.384-48.103 92.618-92.616 8.609-22.974 14.352-61.743 17.227-116.307 1.434-30.154 2.15-74.666 2.15-133.538v-68.923c0-57.436-0.717-101.949-2.15-133.538-2.875-53.128-8.617-91.898-17.227-116.311z" />
<glyph unicode="&#xe906;" glyph-name="linkedin" d="M215.385-56.155h-200.308v644.001h200.308v-644.001zM116.307 676.154c-31.59 0-58.872 11.488-81.846 34.462s-34.462 50.257-34.462 81.847c0 31.59 11.487 58.871 34.462 81.846s50.256 34.461 81.846 34.461c31.59 0 58.872-11.487 81.846-34.461s34.462-50.256 34.462-81.846c0-31.59-11.487-58.872-34.462-81.847s-50.256-34.462-81.846-34.462zM964.923-56.155h-200.308v314.463c0 51.692-4.308 89.026-12.923 112-15.795 38.769-46.667 58.154-92.615 58.154s-78.256-17.231-96.923-51.692c-14.359-25.846-21.539-63.897-21.539-114.154v-318.77h-198.153v644.001h191.692v-88.307h2.154c14.36 28.718 37.333 52.41 68.923 71.077 34.462 22.975 74.667 34.462 120.615 34.462 93.331 0 158.67-29.436 195.998-88.307 28.719-47.385 43.079-120.615 43.079-219.693v-353.231z" />
<glyph unicode="&#xe907;" glyph-name="twitter" d="M918.001 645c1.331-5.334 1.997-14 1.997-26 0-96-23.333-188.667-69.998-278-48.004-94.667-115.332-169.999-202-225.998-94.667-62.669-203.333-94.003-326.001-94.003-117.333 0-224.666 31.334-322 94.003 14.667-1.339 31.333-2.004 50-2.004 97.333 0 184.666 30.003 262 90.002-46.667 0-88 13.333-124 40-34.667 28-58.666 62.667-72 104 13.333-1.333 26-2 38-2 18.667 0 37.334 2 56 6-48 10.666-88 35.333-120 74s-48 82.667-48 131.999v4c29.333-17.333 60.667-26.666 94-28-28.001 20-50.667 45.333-68 76s-26 64-26 100c0 37.334 10 72.667 30 106 52-65.333 115.333-117.334 190-156 76-38.667 156.667-60.001 242-64-2.666 16-3.999 32-3.999 48 0 37.333 9.333 72 28 104 18.667 33.333 44 59.333 76 78s66.667 28 104 28c30.67 0 58.669-6 83.998-18 26.668-12.001 50-28.001 70.005-48 47.996 9.333 92.665 25.999 133.998 50-16.004-49.333-46.665-88-91.999-116 39.995 5.334 79.996 16.667 119.998 34-29.33-42.667-64.666-79.334-105.999-110z" />
<glyph unicode="&#xe908;" glyph-name="arrow-top-right" d="M995.539 960h-625.775c-15.723 0-28.445-12.723-28.445-28.445s12.723-28.445 28.445-28.445h557.11l-918.555-918.553c-11.112-11.117-11.112-29.114 0-40.224 5.555-5.555 12.835-8.333 20.112-8.333s14.555 2.778 20.112 8.333l918.555 918.556v-557.109c0-15.725 12.723-28.448 28.442-28.448 15.725 0 28.448 12.723 28.448 28.448v625.775c0 15.723-12.723 28.445-28.448 28.445z" />
<glyph unicode="&#xe909;" glyph-name="chevron-down" d="M254.234 640.099c-8.116-0.217-16.002-2.741-22.732-7.283s-12.025-10.911-15.262-18.356c-3.238-7.446-4.283-15.662-3.015-23.681s4.799-15.511 10.175-21.594l255.75-298.916c4.006-4.693 8.982-8.465 14.586-11.048 5.604-2.588 11.701-3.925 17.873-3.925s12.269 1.337 17.872 3.925c5.604 2.583 10.58 6.354 14.586 11.048l256.001 298.916c3.874 4.222 6.855 9.181 8.772 14.582s2.725 11.131 2.378 16.85c-0.347 5.719-1.843 11.313-4.398 16.442s-6.116 9.687-10.468 13.41c-4.358 3.723-9.421 6.533-14.882 8.257-5.467 1.725-11.218 2.33-16.924 1.782s-11.241-2.237-16.276-4.97c-5.035-2.734-9.472-6.451-13.039-10.935l-223.664-261.082-223.584 261.082c-4.094 4.96-9.256 8.926-15.101 11.609s-12.22 4.015-18.649 3.888z" />
<glyph unicode="&#xe90a;" glyph-name="android" d="M612.609-9.794c32.222 0 60.327 28.1 60.327 60.326v140.884h40.279c24.172 0 40.279 16.119 40.279 40.279v402.393h-482.98v-402.393c0-24.166 16.112-40.279 40.28-40.279h40.284v-140.89c0-32.22 28.095-60.326 60.326-60.326 32.221 0 60.319 28.106 60.319 60.326v140.89h80.564v-140.89c-0.003-32.22 28.098-60.32 60.323-60.32zM854.106 231.695c32.22 0 60.32 28.1 60.32 60.326v281.767c0 32.054-28.1 60.3-60.32 60.3-32.226 0-60.326-28.246-60.326-60.3v-281.767c0-32.226 28.094-60.326 60.326-60.326zM169.908 231.695c32.227 0 60.326 28.1 60.326 60.326v281.767c0 32.054-28.095 60.3-60.326 60.3-32.225 0-60.319-28.246-60.319-60.3v-281.767c0-32.226 28.094-60.326 60.319-60.326zM705.157 947.892c-8.053 8.104-20.040 8.104-28.094 0l-56.52-56.335c-32.034 16.042-67.951 24.053-107.948 24.13-0.196 0-0.389 0.006-0.585 0.006h-0.007c-0.202 0-0.389-0.006-0.592-0.006-39.994-0.077-75.91-8.088-107.942-24.13l-56.521 56.335c-8.059 8.104-20.042 8.104-28.095 0-8.059-8.059-8.059-20.020 0-28.072l52.26-52.27c-16.839-11.243-32.108-25.001-45.387-40.737-31.79-37.682-52.067-86.723-54.855-139.857-0.025-0.553-0.080-1.1-0.106-1.653-0.17-3.618-0.251-7.255-0.251-10.906h482.98c0 3.65-0.084 7.288-0.253 10.906-0.024 0.553-0.078 1.1-0.108 1.653-2.783 53.135-23.070 102.178-54.856 139.854-13.276 15.736-28.552 29.494-45.387 40.737l52.266 52.27c8.059 8.056 8.059 20.016 0 28.076zM411.327 744.729c-16.665 0-30.176 13.51-30.176 30.175s13.511 30.175 30.176 30.175c16.665 0 30.175-13.51 30.175-30.175s-13.51-30.175-30.175-30.175zM612.683 744.729c-16.665 0-30.175 13.51-30.175 30.175s13.511 30.175 30.175 30.175c16.665 0 30.178-13.51 30.178-30.175s-13.513-30.175-30.178-30.175z" />
<glyph unicode="&#xe90b;" glyph-name="apple" d="M692.664 953.971c-51.381-3.554-111.436-36.442-146.432-79.269-31.925-38.852-58.187-96.557-47.947-152.636 56.139-1.746 114.144 31.925 147.757 75.475 31.443 40.538 55.236 97.882 46.622 156.43zM895.717 630.621c-49.333 61.862-118.664 97.762-184.139 97.762-86.436 0-122.999-41.382-183.053-41.382-61.921 0-108.965 41.261-183.716 41.261-73.426 0-151.612-44.875-201.185-121.615-69.692-108.062-57.765-311.235 55.175-484.291 40.418-61.922 94.388-131.554 164.984-132.156 62.825-0.602 80.534 40.297 165.646 40.719 85.112 0.482 101.255-41.261 163.959-40.599 70.656 0.542 127.578 77.704 167.996 139.625 28.973 44.393 39.755 66.741 62.223 116.856-163.418 62.223-189.621 294.61-27.889 383.819z" />
<glyph unicode="&#xe90c;" glyph-name="arrow-left" d="M938.667 447.99c0-23.595-19.072-42.667-42.667-42.667h-664.998l225.835-225.835c16.683-16.683 16.683-43.652 0-60.335-8.32-8.32-19.243-12.495-30.165-12.495s-21.844 4.175-30.164 12.495l-298.667 298.667c-16.682 16.683-16.682 43.652 0 60.335l298.667 298.667c16.683 16.683 43.647 16.683 60.33 0s16.683-43.651 0-60.333l-225.835-225.832h664.998c23.595 0 42.667-19.072 42.667-42.667z" />
<glyph unicode="&#xe90d;" glyph-name="arrow-right" d="M926.165 478.18l-298.67 298.667c-8.32 8.32-19.238 12.497-30.161 12.497s-21.845-4.177-30.165-12.497c-16.683-16.683-16.683-43.652 0-60.335l225.835-225.835h-665.004c-23.595 0-42.667-19.072-42.667-42.667s19.072-42.667 42.667-42.667h665.004l-225.835-225.831c-16.683-16.683-16.683-43.651 0-60.333 16.683-16.685 43.644-16.685 60.326 0l298.67 298.666c16.683 16.683 16.683 43.652 0 60.335z" />
<glyph unicode="&#xe90e;" glyph-name="clock" d="M874.040 810.040c-96.707 96.702-225.28 149.96-362.040 149.96s-265.334-53.258-362.040-149.96c-96.702-96.706-149.96-225.28-149.96-362.040s53.258-265.334 149.96-362.040c96.706-96.701 225.28-149.96 362.040-149.96s265.334 53.258 362.040 149.96c96.701 96.707 149.96 225.28 149.96 362.040s-53.258 265.334-149.96 362.040zM512 16c-238.206 0-432 193.792-432 432 0 238.206 193.794 432 432 432 238.208 0 432-193.794 432-432 0-238.208-193.792-432-432-432zM551.997 488v320h-79.997v-399.997h303.997v79.997h-224z" />
<glyph unicode="&#xe90f;" glyph-name="facebook" d="M382.667-40.134v427.467h-143.733v169.867h143.733v134.4c0 70.933 19.911 125.689 59.733 164.267 39.822 39.822 92.711 59.733 158.667 59.733 53.511 0 97.066-2.489 130.666-7.467v-151.2h-89.6c-33.6 0-56.622-7.466-69.067-22.4-9.955-12.445-14.933-32.356-14.933-59.733v-117.6h158.667l-22.4-169.867h-136.267v-427.467h-175.466z" />
<glyph unicode="&#xe910;" glyph-name="headphone" d="M768 224c-8.487 0-16.626 3.371-22.628 9.372-6.001 6.003-9.372 14.141-9.372 22.628v384c-0.051 42.418-16.925 83.085-46.92 113.080s-70.662 46.869-113.080 46.92h-128c-42.418-0.051-83.085-16.924-113.080-46.92s-46.868-70.662-46.92-113.080v-384c0-8.487-3.371-16.626-9.372-22.628-6.003-6.001-14.141-9.372-22.628-9.372s-16.626 3.371-22.628 9.372c-6.001 6.003-9.372 14.141-9.372 22.628v384c0.068 59.388 23.689 116.324 65.683 158.317 41.992 41.993 98.929 65.615 158.317 65.683h128c59.388-0.068 116.324-23.689 158.317-65.683s65.616-98.929 65.683-158.317v-384c0-8.487-3.371-16.626-9.372-22.628-6.003-6.001-14.141-9.372-22.628-9.372zM256 224h-64c-25.461 0-49.879 10.115-67.882 28.117-18.004 18.004-28.118 42.422-28.118 67.883v128c0 25.461 10.114 49.879 28.118 67.883 18.003 18.002 42.421 28.117 67.882 28.117h64c8.487 0 16.626-3.371 22.628-9.372 6.001-6.003 9.372-14.141 9.372-22.628v-256c0-8.487-3.371-16.626-9.372-22.628-6.003-6.001-14.141-9.372-22.628-9.372zM192 480c-8.487 0-16.626-3.371-22.627-9.372-6.001-6.003-9.373-14.141-9.373-22.628v-128c0-8.487 3.371-16.626 9.373-22.628s14.14-9.372 22.627-9.372h32v192h-32zM832 224h-64c-8.487 0-16.626 3.371-22.628 9.372-6.001 6.003-9.372 14.141-9.372 22.628v256c0 8.487 3.371 16.626 9.372 22.628 6.003 6.001 14.141 9.372 22.628 9.372h64c25.461 0 49.879-10.115 67.883-28.117 18.002-18.004 28.117-42.422 28.117-67.883v-128c0-25.461-10.115-49.879-28.117-67.883-18.004-18.002-42.422-28.117-67.883-28.117zM800 288h32c8.487 0 16.626 3.371 22.628 9.372 6.001 6.003 9.372 14.141 9.372 22.628v128c0 8.487-3.371 16.626-9.372 22.628-6.003 6.001-14.141 9.372-22.628 9.372h-32v-192zM544 32c-18.987 0-37.548 5.63-53.334 16.179-15.788 10.549-28.092 25.541-35.359 43.084-7.266 17.541-9.167 36.844-5.462 55.466 3.703 18.622 12.847 35.727 26.272 49.154 13.427 13.425 30.532 22.569 49.154 26.272 18.622 3.705 37.925 1.804 55.466-5.462 17.543-7.266 32.535-19.571 43.084-35.359 10.549-15.786 16.179-34.347 16.179-53.334 0-25.461-10.115-49.879-28.117-67.883-18.004-18.002-42.422-28.117-67.883-28.117zM544 160c-6.328 0-12.515-1.876-17.779-5.392-5.261-3.516-9.363-8.516-11.786-14.363-2.421-5.847-3.056-12.28-1.821-18.487s4.282-11.909 8.757-16.386c4.477-4.475 10.179-7.522 16.386-8.757s12.64-0.6 18.487 1.821c5.849 2.423 10.846 6.525 14.363 11.786 3.516 5.263 5.392 11.45 5.392 17.779 0 8.487-3.371 16.626-9.372 22.628-6.003 6.001-14.141 9.372-22.628 9.372zM672 96h-64c-8.487 0-16.626 3.371-22.628 9.372-6.001 6.003-9.372 14.141-9.372 22.628s3.371 16.626 9.372 22.628c6.003 6.001 14.141 9.372 22.628 9.372h64c16.974 0 33.253 6.742 45.255 18.745 12.003 12.001 18.745 28.281 18.745 45.255v160c0 8.487 3.371 16.626 9.372 22.628 6.003 6.001 14.141 9.372 22.628 9.372s16.626-3.371 22.628-9.372c6.001-6.003 9.372-14.141 9.372-22.628v-160c0-33.948-13.486-66.505-37.491-90.509s-56.562-37.491-90.509-37.491z" />
<glyph unicode="&#xe911;" glyph-name="person" horiz-adv-x="922" d="M460.8 857.6c-113.108 0-204.8-91.692-204.8-204.8 0-113.106 91.692-204.8 204.8-204.8 113.106 0 204.8 91.694 204.8 204.8 0 113.108-91.694 204.8-204.8 204.8zM153.6 652.8c0 169.662 137.538 307.2 307.2 307.2s307.2-137.538 307.2-307.2c0-169.661-137.539-307.2-307.2-307.2s-307.2 137.539-307.2 307.2zM144.033 211.635c83.47 52.173 195.598 82.765 316.767 82.765s233.298-30.592 316.769-82.765c82.744-51.717 144.031-129.72 144.031-224.435 0-28.278-22.922-51.2-51.2-51.2s-51.2 22.922-51.2 51.2c0 46.669-30.408 96.666-95.903 137.6-64.778 40.484-157.45 67.2-262.497 67.2s-197.72-26.716-262.495-67.2c-65.497-40.934-95.905-90.931-95.905-137.6 0-28.278-22.923-51.2-51.2-51.2s-51.2 22.922-51.2 51.2c0 94.715 61.284 172.718 144.033 224.435z" />
<glyph unicode="&#xe912;" glyph-name="cross" d="M26.559 37.519l906.765 922.481 90.676-92.248-906.765-922.481-90.676 92.248zM90.677 950.729l906.765-922.481-90.676-92.248-906.765 922.481 90.677 92.248z" />
<glyph unicode="&#xe913;" glyph-name="chevron-right" d="M319.937 190.236c0.217-8.118 2.741-16.003 7.283-22.733s10.911-12.026 18.356-15.263c7.446-3.237 15.662-4.284 23.681-3.015s15.511 4.801 21.594 10.177l298.919 255.749c4.693 4.006 8.459 8.982 11.048 14.586 2.583 5.604 3.92 11.701 3.92 17.872s-1.337 12.269-3.92 17.873c-2.588 5.604-6.354 10.58-11.048 14.586l-298.919 256c-4.222 3.874-9.181 6.858-14.582 8.773s-11.131 2.725-16.85 2.378c-5.719-0.347-11.312-1.842-16.441-4.396s-9.688-6.116-13.41-10.472c-3.723-4.356-6.534-9.417-8.258-14.881s-2.33-11.22-1.782-16.923c0.548-5.704 2.237-11.239 4.97-16.275s6.451-9.47 10.935-13.038l261.085-223.667-261.085-223.585c-4.96-4.090-8.926-9.256-11.609-15.098s-4.015-12.22-3.888-18.648z" />
<glyph unicode="&#xe914;" glyph-name="logout" d="M426.669 74.665c-62.442-0.055-123.901 15.549-178.751 45.391-54.85 29.838-101.339 72.96-135.213 125.416-33.874 52.452-54.050 112.565-58.682 174.836s6.43 124.707 32.171 181.595c25.741 56.889 65.34 106.413 115.172 144.039s108.306 62.152 170.069 71.333c61.765 9.181 124.843 2.725 183.463-18.779 58.624-21.504 110.915-57.368 152.092-104.309 5.455-6.489 8.153-14.856 7.515-23.309s-4.561-16.321-10.929-21.917c-3.19-2.755-6.892-4.852-10.894-6.171s-8.227-1.836-12.43-1.519c-4.202 0.317-8.298 1.462-12.060 3.367-3.757 1.905-7.105 4.535-9.842 7.736-33.997 39.196-77.3 69.213-125.936 87.286s-101.033 23.624-152.375 16.139c-51.341-7.484-99.975-27.762-141.426-58.967s-74.387-72.336-95.776-119.606c-21.389-47.27-30.546-99.159-26.626-150.895s20.79-101.656 49.058-145.164c28.268-43.504 67.025-79.206 112.704-103.806 45.679-24.608 96.814-37.325 148.697-36.986 43.874-0.091 87.261 9.232 127.228 27.337s75.587 44.576 104.452 77.623c2.737 3.202 6.085 5.829 9.842 7.735 3.761 1.906 7.857 3.048 12.060 3.367 4.202 0.315 8.428-0.201 12.43-1.52s7.704-3.415 10.894-6.172c6.368-5.597 10.291-13.462 10.929-21.918 0.638-8.452-2.060-16.817-7.515-23.308-34.773-40.298-77.796-72.661-126.157-94.889-48.364-22.233-100.939-33.812-154.163-33.965zM810.669 288c-4.206-0.020-8.369 0.8-12.253 2.41-3.883 1.615-7.408 3.986-10.362 6.975-5.99 6.002-9.358 14.135-9.358 22.615s3.367 16.612 9.358 22.615l105.389 105.385-105.389 105.385c-5.652 6.069-8.728 14.091-8.582 22.381s3.505 16.2 9.366 22.063c5.864 5.863 13.773 9.222 22.063 9.368s16.313-2.931 22.382-8.583l128-127.999c5.99-6.002 9.358-14.135 9.358-22.615s-3.367-16.612-9.358-22.615l-128-128c-2.958-2.989-6.479-5.36-10.362-6.975-3.883-1.611-8.050-2.43-12.253-2.41zM938.669 416h-469.335c-8.483 0-16.624 3.371-22.626 9.374-5.998 5.998-9.374 14.139-9.374 22.626s3.375 16.628 9.374 22.626c6.002 6.002 14.143 9.374 22.626 9.374h469.335c8.487 0 16.628-3.371 22.626-9.374 6.002-5.998 9.374-14.139 9.374-22.626s-3.371-16.628-9.374-22.626c-5.998-6.002-14.139-9.374-22.626-9.374z" />
<glyph unicode="&#xe915;" glyph-name="message" d="M363.264-5.717c-12.815 0.043-25.498 2.594-37.333 7.509-17.659 7.104-32.763 19.371-43.337 35.196s-16.125 34.475-15.927 53.508v26.539c-0.023 11.396-4.562 22.319-12.624 30.37-8.062 8.055-18.988 12.582-30.384 12.595h-52.992c-31.108 0.034-60.933 12.407-82.93 34.402-21.997 21.999-34.37 51.823-34.403 82.931v512c0.034 31.108 12.407 60.933 34.403 82.93s51.822 34.37 82.93 34.403h682.667c31.108-0.034 60.932-12.407 82.931-34.403 21.995-21.997 34.368-51.822 34.402-82.93v-512c-0.034-31.108-12.407-60.932-34.402-82.931-21.999-21.995-51.823-34.368-82.931-34.402h-267.605c-11.383-0.013-22.302-4.523-30.379-12.544l-124.8-124.843c-8.785-8.939-19.255-16.043-30.805-20.907-11.549-4.86-23.949-7.386-36.48-7.424zM170.667 842.667c-14.138-0.023-27.69-5.649-37.687-15.646s-15.623-23.549-15.646-37.687v-512c0.023-14.14 5.649-27.691 15.646-37.687s23.549-15.625 37.687-15.646h52.992c28.363-0.034 55.554-11.311 75.613-31.364s31.349-47.241 31.395-75.601v-26.539c0.006-6.323 1.885-12.506 5.402-17.762 3.517-5.261 8.512-9.357 14.356-11.776s12.273-3.055 18.477-1.822c6.204 1.233 11.903 4.275 16.378 8.747l124.8 124.8c20.113 19.989 47.292 31.241 75.648 31.317h267.605c14.14 0.021 27.691 5.649 37.687 15.646s15.625 23.548 15.646 37.687v512c-0.021 14.138-5.649 27.69-15.646 37.687s-23.548 15.623-37.687 15.646h-682.667zM725.333 586.667h-426.667c-8.487 0-16.626 3.372-22.627 9.373s-9.373 14.141-9.373 22.627c0 8.487 3.372 16.626 9.373 22.627s14.141 9.373 22.627 9.373h426.667c8.486 0 16.627-3.372 22.626-9.373 6.003-6.001 9.374-14.141 9.374-22.627s-3.371-16.626-9.374-22.627c-5.999-6.001-14.14-9.373-22.626-9.373zM554.667 416h-256c-8.487 0-16.626 3.371-22.627 9.374-6.001 5.999-9.373 14.14-9.373 22.626s3.372 16.627 9.373 22.626c6.001 6.003 14.141 9.374 22.627 9.374h256c8.486 0 16.627-3.371 22.626-9.374 6.003-5.999 9.374-14.14 9.374-22.626s-3.371-16.627-9.374-22.626c-5.999-6.003-14.14-9.374-22.626-9.374z" />
<glyph unicode="&#xe916;" glyph-name="payment" d="M933.897 537.515c16.568 0 30 13.432 30 30v241.435c0 82.996-67.438 151.048-151.128 151.048-21.226 0-581.593 0.002-602.701 0.002-82.692 0-149.966-67.276-149.966-149.968v-843.493c0-26.864 33.008-40.231 51.668-20.746l38.38 40.079 40.542-40.545c11.716-11.715 30.708-11.715 42.424-0.003l38.418 38.406 38.811-38.491c11.694-11.595 30.553-11.598 42.25-0.003l39.424 39.088 39.439-39.090c11.685-11.589 30.524-11.589 42.221-0.018l50.524 49.998c46.223-37.031 104.825-59.214 168.521-59.214 148.878 0 270 121.122 270 270 0 139.056-105.671 253.882-240.927 268.431v63.084h212.1zM903.899 808.95v-211.437h-182.102v211.437c0 50.206 40.846 91.050 91.051 91.050 50.202 0 91.051-40.844 91.051-91.050zM452.593 8.763l-39.459 39.108c-11.697 11.595-30.547 11.589-42.241 0l-39.415-39.082-38.9 38.578c-11.729 11.63-30.653 11.595-42.333-0.085l-38.33-38.318-41.014 41.013c-12.258 12.256-31.564 11.352-42.882-0.465l-7.916-8.265v768.785c0 49.608 40.358 89.968 89.966 89.968h482.352c-19.204-25.336-30.623-56.88-30.623-91.050v-334.733c-210.555-24.123-311.799-271.758-180.002-436.56l-29.202-28.894zM902.723 206c0-115.794-94.205-209.999-209.999-209.999s-209.999 94.205-209.999 209.999c0 115.794 94.205 209.999 209.999 209.999s209.999-94.205 209.999-209.999zM672.724 289.277v-61.276h-60.723c-16.568 0-30-13.432-30-30s13.432-30 30-30h90.723c16.568 0 30 13.432 30 30v91.276c0 16.565-13.432 30-30 30s-30-13.435-30-30zM445.411 686.92c-28.701 22.368-66.15 25.84-74.515 40.94-2.952 5.33 0.193 14.108 6.6 18.416 9.117 6.13 28.619 3.714 35.471-2.606 12.18-11.236 31.159-10.466 42.391 1.712 11.235 12.18 10.465 31.16-1.712 42.392-9.321 8.596-21.141 14.73-33.924 18.31v2.474c0 16.568-13.432 30-30 30-16.565 0-29.997-13.432-29.997-30v-4.482c-43.608-16.34-62.338-67.332-41.314-105.288 14.728-26.592 40.574-36.798 61.338-44.999 16.443-6.492 40.656-15.401 38.655-33.362-0.957-8.564-7.431-17.063-16.118-21.15-12.387-5.828-37.297-2.224-52.25 7.56-13.865 9.067-32.461 5.181-41.531-8.684s-5.181-32.458 8.684-41.528c11.656-7.627 26.56-13.777 42.537-17.2v-3.815c0-16.568 13.432-30 29.997-30 16.568 0 30 13.432 30 30v6.121c60.551 20.977 82.777 100.703 25.688 145.189zM361.999 447.839h-150c-16.568 0-30-13.432-30-30 0-16.565 13.432-29.997 30-29.997h150c16.568 0 30 13.432 30 29.997 0 16.568-13.432 30-30 30zM361.999 327.639h-150.101c-16.568 0-30-13.432-30-30 0-16.565 13.432-29.997 30-29.997h150.101c16.568 0 30 13.432 30 29.997 0 16.568-13.432 30-30 30zM361.999 207.84h-150.201c-16.568 0-30-13.432-30-30s13.432-30 30-30h150.201c16.568 0 30 13.432 30 30s-13.432 30-30 30z" />
<glyph unicode="&#xe917;" glyph-name="flag" d="M132.264-53.333c-23.467 0-42.667 19.2-42.667 42.667v842.667c0 23.467 19.2 42.667 42.667 42.667s42.667-19.2 42.667-42.667v-842.667c-2.133-23.467-19.2-42.667-42.667-42.667zM292.264 251.733c-70.4 0-130.133 23.467-187.733 74.667-8.533 8.533-14.933 19.2-14.933 32v484.266c0 17.067 10.667 32 25.6 38.4s32 4.267 44.8-6.4c42.667-36.267 83.2-53.333 132.267-53.333 64 0 132.267 29.867 202.667 61.867 76.803 34.133 153.603 68.266 236.803 68.266 70.4 0 130.133-23.467 187.733-74.666 8.533-8.533 14.933-19.2 14.933-32v-484.266c0-17.067-10.667-32-25.6-38.4s-32-4.267-44.8 6.4c-42.667 36.267-83.2 53.333-132.267 53.333-64 0-132.267-29.867-202.67-61.867-76.8-32-155.733-66.133-236.8-68.267zM172.797 377.6c36.267-27.733 74.667-42.667 119.467-42.667 64 0 132.267 29.867 202.667 61.866 76.803 34.133 153.603 68.267 236.803 68.267 42.667 0 81.067-8.533 119.467-27.733v386.133c-36.267 27.733-74.667 42.667-119.467 42.667-64 0-132.267-29.867-202.67-61.867-76.8-34.133-153.6-68.267-236.8-68.267-42.667 0-81.067 8.533-119.467 27.733v-386.132z" />
<glyph unicode="&#xe918;" glyph-name="pencil" d="M133.593-5.164c-10.835-0.015-21.544 2.326-31.384 6.861s-18.577 11.154-25.603 19.405c-7.026 8.243-12.174 17.92-15.087 28.357s-3.521 21.38-1.782 32.073l35.285 216.323c2.512 15.464 9.844 29.739 20.95 40.79l503.254 503.168c18.735 19.199 41.095 34.488 65.784 44.979s51.218 15.978 78.040 16.14c26.829 0.162 53.416-5.003 78.226-15.196 24.817-10.193 47.36-25.21 66.326-44.181s33.975-41.52 44.164-66.336c10.181-24.817 15.338-51.408 15.17-78.234s-5.661-53.35-16.165-78.035c-10.496-24.686-25.79-47.042-44.997-65.771l-503.123-503.123c-11.023-11.088-25.271-18.41-40.704-20.912l-216.32-35.284c-3.977-0.666-8-1.002-12.032-1.024zM762.5 837.162c-18.235 0.061-36.295-3.497-53.14-10.47s-32.139-17.221-44.994-30.149l-503.082-503.168c-1.597-1.6-2.656-3.658-3.030-5.888l-35.285-216.231c-0.263-1.675-0.126-3.387 0.399-4.996 0.524-1.616 1.423-3.079 2.621-4.279 1.197-1.192 2.662-2.092 4.272-2.619s3.322-0.658 4.996-0.395l216.32 35.328c2.197 0.366 4.226 1.412 5.802 2.984l503.169 503.167c19.397 19.398 32.6 44.113 37.947 71.019s2.597 54.793-7.907 80.133c-10.503 25.34-28.292 46.996-51.105 62.226-22.821 15.231-49.635 23.352-77.071 23.337h0.088zM386.559 48.64c-4.203-0.015-8.366 0.812-12.248 2.421-3.882 1.616-7.405 3.979-10.366 6.963l-241.493 241.495c-3.144 2.929-5.666 6.462-7.414 10.388s-2.689 8.163-2.766 12.459c-0.076 4.297 0.715 8.565 2.324 12.549s4.005 7.604 7.044 10.643c3.039 3.038 6.658 5.434 10.643 7.044s8.253 2.4 12.549 2.324c4.296-0.075 8.534-1.016 12.459-2.765s7.458-4.271 10.388-7.415l241.494-241.49c4.47-4.476 7.513-10.174 8.745-16.384 1.232-6.203 0.599-12.632-1.821-18.476s-6.517-10.84-11.775-14.358c-5.257-3.511-11.438-5.391-17.763-5.398zM834.143 496.639c-4.206-0.015-8.375 0.807-12.251 2.419-3.884 1.612-7.409 3.98-10.364 6.968l-241.537 241.493c-5.827 6.038-9.049 14.123-8.972 22.513s3.446 16.415 9.382 22.345c5.936 5.93 13.964 9.292 22.354 9.361s16.473-3.161 22.505-8.992l241.492-241.494c4.469-4.475 7.512-10.174 8.748-16.378 1.229-6.204 0.6-12.633-1.821-18.477s-6.517-10.839-11.776-14.356c-5.259-3.517-11.44-5.396-17.759-5.402z" />
<glyph unicode="&#xe919;" glyph-name="plus-circle" d="M512-10.667c-90.716 0-179.394 26.903-254.821 77.301s-134.216 122.032-168.932 205.841c-34.715 83.809-43.798 176.034-26.101 265.006s61.381 170.699 125.528 234.845c64.146 64.146 145.872 107.829 234.845 125.528s181.197 8.615 265.006-26.101c83.809-34.716 155.443-93.504 205.841-168.932s77.301-164.106 77.301-254.821c-0.137-121.606-48.503-238.188-134.491-324.176s-202.57-134.354-324.176-134.491zM512 842.667c-78.057 0-154.362-23.147-219.265-66.513s-115.488-105.006-145.36-177.121c-29.871-72.116-37.687-151.47-22.459-228.025 15.228-76.561 52.816-146.881 108.012-202.081 55.195-55.194 125.518-92.78 202.076-108.009s155.912-7.413 228.030 22.46c72.112 29.872 133.751 80.458 177.118 145.357 43.366 64.905 66.514 141.21 66.514 219.267-0.114 104.637-41.728 204.956-115.718 278.947s-174.313 115.607-278.949 115.72zM512 245.333c-8.487 0-16.626 3.374-22.628 9.375-6.001 5.996-9.372 14.137-9.372 22.625v341.333c0 8.487 3.371 16.626 9.372 22.628s14.141 9.372 22.628 9.372c8.487 0 16.626-3.371 22.628-9.372s9.372-14.141 9.372-22.628v-341.333c0-8.488-3.371-16.629-9.372-22.625-6.001-6.002-14.141-9.375-22.628-9.375zM682.667 416h-341.333c-8.487 0-16.626 3.371-22.628 9.372s-9.372 14.141-9.372 22.628c0 8.487 3.371 16.626 9.372 22.628s14.141 9.372 22.628 9.372h341.333c8.488 0 16.629-3.371 22.625-9.372 6.002-6.001 9.375-14.141 9.375-22.628s-3.374-16.626-9.375-22.628c-5.996-6.001-14.137-9.372-22.625-9.372z" />
<glyph unicode="&#xe91a;" glyph-name="review" d="M904.819 840.817c-19.674 19.798-43.078 35.497-68.858 46.189s-53.421 16.166-81.331 16.104h-485.261c-27.914 0.037-55.561-5.433-81.357-16.098s-49.235-26.315-68.973-46.052c-19.738-19.738-35.388-43.177-46.052-68.973s-16.135-53.443-16.098-81.357v-606.721c0-19.104 6.011-37.722 17.181-53.222 11.171-15.494 26.934-27.085 45.057-33.126s37.689-6.227 55.924-0.531c18.235 5.696 34.216 16.986 45.678 32.269l35.271 48.922c8.509 11.27 19.509 20.422 32.141 26.739s26.554 9.626 40.676 9.67h425.812c56.23 0.077 110.15 22.406 149.965 62.118 39.814 39.706 62.291 93.562 62.515 149.793v364.089c0.064 27.908-5.408 55.553-16.102 81.332s-26.394 49.182-46.189 68.854zM906.24 326.542c-0.077-40.187-16.070-78.702-44.486-107.118s-66.938-44.416-107.123-44.493h-424.675c-23.549-0.032-46.771-5.517-67.843-16.032-21.073-10.509-39.424-25.76-53.615-44.55l-36.409-48.64c-3.851-5.037-9.178-8.749-15.238-10.611s-12.55-1.786-18.565 0.218c-6.015 2.010-11.253 5.843-14.984 10.97-3.731 5.12-5.768 11.283-5.826 17.626v606.721c-0.038 19.957 3.866 39.725 11.485 58.171s18.807 35.205 32.919 49.317c14.112 14.112 30.872 25.299 49.317 32.919s38.214 11.524 58.172 11.486h485.261c40.211 0 78.771-15.973 107.206-44.405 28.429-28.432 44.403-66.995 44.403-107.204v-364.373zM326.827 721.066l23.325-28.729 34.417-13.084-20.195-31.005-1.707-36.977-35.84 9.671-35.556-9.671-1.706 36.977-20.196 31.005 34.418 13.084 23.040 28.729zM478.721 721.066l23.040-28.729 34.702-13.084-20.195-31.005-1.991-36.977-35.556 9.671-35.84-9.671-1.707 36.977-20.195 31.005 34.418 13.084 23.324 28.729zM630.328 721.066l23.323-28.729 34.419-13.084-20.198-31.005-1.702-36.977-35.841 9.671-35.556-9.671-1.991 36.977-20.195 31.005 34.702 13.084 23.040 28.729zM269.369 356.977h242.631v-60.587h-242.631v60.587zM269.369 508.587h515.7v-60.587h-515.7v60.587z" />
<glyph unicode="&#xe91b;" glyph-name="star" d="M1001.771 493.93c20.156 19.644 27.273 48.473 18.577 75.273-8.713 26.8-31.411 45.931-59.298 49.99l-247.945 36.027c-10.559 1.538-19.684 8.16-24.4 17.737l-110.848 224.648c-12.446 25.241-37.708 40.927-65.86 40.927-28.133 0-53.394-15.686-65.841-40.927l-110.868-224.669c-4.716-9.576-13.861-16.199-24.421-17.737l-247.942-36.027c-27.866-4.039-50.585-23.19-59.299-49.99-8.694-26.8-1.579-55.629 18.577-75.273l179.395-174.863c7.648-7.463 11.155-18.208 9.35-28.706l-42.321-246.914c-3.753-21.734 1.947-42.88 16.014-59.546 21.858-25.984 60.017-33.894 90.528-17.86l221.736 116.591c9.268 4.855 20.936 4.813 30.183 0l221.757-116.591c10.785-5.683 22.288-8.55 34.161-8.55 21.673 0 42.219 9.634 56.346 26.411 14.084 16.666 19.767 37.845 16.013 59.546l-42.341 246.914c-1.805 10.519 1.702 21.243 9.35 28.706l179.397 174.884z" />
<glyph unicode="&#xe91c;" glyph-name="wallet" d="M963.999 469.51v120.727c0 59.31-47.195 107.781-105.999 109.897v74.102c0 38.598-31.402 70-70.001 70h-192.717l-24.886 69.174c-6.346 17.64-19.19 31.736-36.165 39.69-16.978 7.956-36.027 8.804-53.643 2.392l-349.709-127.282c-17.596-6.404-31.634-19.282-39.53-36.262s-8.698-36.014-2.256-53.598l14.050-38.35c-57.47-3.554-103.144-51.415-103.144-109.763v-544.001c0-60.653 49.346-110.001 110-110.001h744.001c60.653 0 109.998 49.348 109.998 110.001v124.726c33.877 4.868 60.001 34.073 60.001 69.275v159.999c0 35.202-26.124 64.407-60.001 69.275zM963.999 240.236c0-5.515-4.485-10-10-10h-159.999c-49.626 0-90.001 40.372-90.001 89.998s40.375 90.001 90.001 90.001h159.999c5.515 0 10-4.485 10-10v-159.999zM145.432 758.989c-1.242 3.39-0.332 6.252 0.322 7.658 0.654 1.404 2.256 3.946 5.648 5.18l349.709 127.282c3.397 1.234 6.258 0.316 7.662-0.342 1.407-0.658 3.944-2.27 5.167-5.67l17.581-48.864h-13.52c-38.599 0-70.001-31.402-70.001-70v-74h-281.042l-21.526 58.756zM798 774.235v-74h-290v74c0 5.514 4.485 10 10 10h270c5.515 0 10-4.486 10-10zM854.001-3.765h-744.001c-27.57 0-50 22.431-50 50v544.001c0 27.569 22.43 49.998 50 49.998h744.001c27.569 0 49.998-22.429 49.998-49.998v-120.001h-109.998c-82.71 0-150.001-67.291-150.001-150.001s67.291-149.998 150.001-149.998h109.998v-124.001c0-27.569-22.429-50-49.998-50zM794.001 290.243c16.568 0 30 13.432 30 30s-13.432 30-30 30c-16.568 0-30-13.432-30-30s13.432-30 30-30z" />
<glyph unicode="&#xe91d;" glyph-name="account" d="M512-10.665c-90.719 0-179.396 26.9-254.823 77.296-75.427 50.4-134.216 122.033-168.931 205.844s-43.798 176.033-26.101 265.007c17.698 88.972 61.382 170.699 125.527 234.845s145.872 107.83 234.846 125.527c88.97 17.697 181.193 8.615 265.003-26.101s155.447-93.504 205.844-168.931c50.4-75.427 77.3-164.107 77.3-254.822-0.134-121.604-48.502-238.19-134.491-324.175-85.988-85.988-202.571-134.357-324.175-134.491zM512 842.667c-78.060 0-154.364-23.147-219.266-66.514s-115.488-105.005-145.36-177.121c-29.871-72.118-37.687-151.47-22.459-228.029 15.228-76.556 52.817-146.881 108.012-202.075s125.518-92.782 202.076-108.012c76.556-15.226 155.912-7.412 228.029 22.461 72.113 29.869 133.754 80.455 177.12 145.357s66.513 141.21 66.513 219.266c-0.114 104.637-41.732 204.957-115.72 278.947-73.992 73.99-174.308 115.607-278.945 115.72zM512 416c-31.646 0-62.578 9.385-88.891 26.967-26.313 17.577-46.82 42.567-58.93 71.802-12.11 29.239-15.278 61.408-9.105 92.446s21.412 59.546 43.789 81.923c22.374 22.376 50.885 37.615 81.92 43.789 31.039 6.174 63.208 3.005 92.448-9.105 29.235-12.11 54.225-32.618 71.802-58.93 17.581-26.312 26.967-57.246 26.967-88.891-0.055-42.417-16.931-83.082-46.927-113.073-29.991-29.995-70.656-46.872-113.073-46.927zM512 672c-18.987 0-37.549-5.63-53.335-16.179s-28.093-25.542-35.36-43.084c-7.263-17.542-9.165-36.844-5.463-55.465 3.706-18.625 12.847-35.73 26.273-49.156s30.531-22.567 49.156-26.273c18.621-3.702 37.923-1.8 55.465 5.463 17.542 7.266 32.536 19.574 43.083 35.36s16.179 34.347 16.179 53.335c-0.035 25.45-10.157 49.849-28.156 67.845-17.995 17.996-42.394 28.121-67.844 28.155zM725.335 202.665c-6.719 0.016-13.261 2.139-18.708 6.061-5.451 3.927-9.531 9.464-11.674 15.829l-23.209 69.632c-3.517 10.626-10.299 19.873-19.377 26.423s-19.988 10.067-31.185 10.055h-218.368c-11.192 0.012-22.104-3.505-31.181-10.055s-15.858-15.797-19.377-26.423l-23.211-69.632c-2.682-8.058-8.454-14.718-16.048-18.519s-16.386-4.431-24.442-1.749c-8.057 2.682-14.718 8.456-18.519 16.049s-4.429 16.384-1.747 24.442l23.211 69.675c7.785 23.363 22.726 43.685 42.706 58.080 19.98 14.399 43.985 22.142 68.61 22.13h218.368c24.627 0.012 48.632-7.731 68.612-22.13 19.98-14.395 34.922-34.718 42.709-58.080l23.209-69.675c1.331-3.986 1.859-8.196 1.56-12.386-0.299-4.194-1.422-8.283-3.304-12.040s-4.486-7.109-7.664-9.858c-3.178-2.749-6.869-4.844-10.858-6.164-3.257-1.111-6.672-1.67-10.11-1.666z" />
<glyph unicode="&#xe91e;" glyph-name="booking" d="M813.425 929h-602.849c-116.112 0-210.576-94.464-210.576-210.576s94.464-210.576 210.576-210.576h153.327v-170.127l-7.487 6.282c-37.007 31.054-94.914 28.529-129.076-5.638-35.8-35.799-33.456-92.695 5.474-125.361l131.086-109.995v-106.007c0-16.568 13.432-30 30-30h360c16.568 0 30 13.432 30 30v337.11c0 45.313-33.909 83.711-78.874 89.31l-161.128 20.076v64.354h269.526c116.113 0 210.575 94.465 210.575 210.577s-94.463 210.572-210.575 210.572zM423.901 27.001v59.998h300v-59.998h-300zM697.61 363.883c14.988-1.87 26.29-14.667 26.29-29.772v-187.111h-319.081l-133.439 111.967c-11.844 9.939-12.562 26.024-1.614 36.975 12.296 12.294 34.763 13.274 48.084 2.098l56.768-47.634c19.474-16.337 49.284-2.478 49.284 22.981v383.614c0 16.541 13.458 29.999 30 29.999s30-13.458 30-29.999v-240.002c0-15.132 11.276-27.897 26.293-29.769l187.415-23.347zM813.425 567.849h-269.526v89.152c0 49.625-40.372 89.999-89.998 89.999s-90.001-40.374-90.001-89.999v-89.152h-153.326c-83.026 0-150.574 67.549-150.574 150.575s67.548 150.576 150.576 150.576h602.849c83.026 0 150.575-67.548 150.575-150.576s-67.549-150.575-150.575-150.575zM790.589 800.212l-98.79-98.786-38.786 38.786c-11.715 11.716-30.711 11.716-42.429 0-11.715-11.716-11.715-30.71 0-42.426l60.001-60.001c11.715-11.715 30.711-11.717 42.426 0l120.001 120.001c11.715 11.716 11.715 30.71 0 42.426-11.715 11.718-30.711 11.718-42.423 0z" />
<glyph unicode="&#xe91f;" glyph-name="calendar" d="M810.668-10.664h-597.333c-42.421 0.042-83.091 16.915-113.087 46.913-29.996 29.994-46.868 70.665-46.913 113.087v511.999c0.045 42.421 16.917 83.092 46.913 113.087s70.666 46.868 113.087 46.913h597.333c42.417-0.056 83.084-16.931 113.073-46.925 29.994-29.993 46.871-70.657 46.927-113.075v-511.999c-0.056-42.417-16.933-83.084-46.927-113.078-29.989-29.994-70.656-46.867-113.073-46.922zM213.335 757.335c-25.454-0.022-49.859-10.144-67.857-28.142s-28.12-42.404-28.143-67.858v-511.999c0.023-25.456 10.144-49.859 28.143-67.859s42.403-28.118 67.857-28.141h597.333c25.451 0.033 49.85 10.156 67.845 28.155 17.994 17.994 28.123 42.394 28.155 67.845v511.999c-0.033 25.451-10.161 49.849-28.155 67.845s-42.394 28.121-67.845 28.155h-597.333zM938.668 544.002h-853.333c-8.487 0-16.626 3.371-22.627 9.373s-9.373 14.14-9.373 22.627v85.333c0.045 42.421 16.917 83.092 46.913 113.087s70.666 46.868 113.087 46.913h597.333c42.417-0.056 83.084-16.931 113.073-46.925 29.994-29.993 46.871-70.657 46.927-113.075v-85.333c0-8.487-3.37-16.626-9.374-22.627-6-6.002-14.141-9.373-22.626-9.373zM117.335 608.002h789.333v53.333c-0.033 25.451-10.161 49.849-28.155 67.845s-42.394 28.121-67.845 28.155h-597.333c-25.454-0.022-49.859-10.144-67.857-28.142s-28.12-42.404-28.143-67.858v-53.333zM682.668 672.001c-8.485 0-16.626 3.371-22.626 9.372s-9.374 14.141-9.374 22.628v170.667c0 8.487 3.375 16.626 9.374 22.627s14.141 9.373 22.626 9.373c8.49 0 16.631-3.372 22.63-9.373s9.37-14.141 9.37-22.627v-170.667c0-8.487-3.37-16.626-9.37-22.628s-14.141-9.372-22.63-9.372zM341.335 672.001c-8.487 0-16.626 3.371-22.627 9.372s-9.373 14.141-9.373 22.628v170.667c0 8.487 3.372 16.626 9.373 22.627s14.141 9.373 22.627 9.373c8.487 0 16.627-3.372 22.628-9.373s9.372-14.141 9.372-22.627v-170.667c0-8.487-3.371-16.626-9.372-22.628s-14.141-9.372-22.628-9.372zM469.336 202.668c-4.203-0.009-8.367 0.815-12.248 2.425s-7.405 3.98-10.365 6.963l-85.333 85.332c-5.652 6.065-8.73 14.089-8.583 22.379s3.504 16.202 9.368 22.063c5.863 5.865 13.773 9.221 22.063 9.37 8.29 0.144 16.314-2.932 22.38-8.583l62.72-62.678 148.052 148.010c6.070 5.651 14.089 8.732 22.379 8.583 8.294-0.144 16.202-3.505 22.063-9.365 5.865-5.865 9.225-13.773 9.37-22.063 0.149-8.294-2.932-16.314-8.583-22.384l-170.668-170.664c-2.96-2.984-6.484-5.353-10.366-6.963s-8.043-2.434-12.246-2.425z" />
<glyph unicode="&#xe920;" glyph-name="clipboard" d="M725.335 778.666h-11.52c-0.158 12.009-2.804 23.856-7.775 34.79-4.966 10.935-12.146 20.721-21.087 28.74-8.944 8.019-19.448 14.097-30.858 17.85s-23.473 5.099-35.43 3.954h-213.331c-11.957 1.145-24.020-0.201-35.429-3.954s-21.916-9.83-30.857-17.85c-8.941-8.019-16.122-17.805-21.090-28.74s-7.614-22.781-7.771-34.79h-11.52c-21.617 2.506-43.522 0.091-64.074-7.064s-39.221-18.864-54.609-34.252c-15.388-15.388-27.098-34.057-34.252-54.609s-9.57-42.457-7.064-64.074v-426.666c-2.506-21.618-0.091-43.524 7.064-64.075s18.864-39.219 34.252-54.611c15.388-15.388 34.057-27.097 54.609-34.249 20.552-7.156 42.457-9.57 64.074-7.066h426.668c21.614-2.505 43.52-0.091 64.071 7.066 20.555 7.152 39.223 18.861 54.611 34.249 15.388 15.392 27.097 34.060 34.253 54.611s9.57 42.457 7.066 64.075v426.666c2.505 21.617 0.091 43.522-7.066 64.074s-18.865 39.221-34.253 54.609c-15.388 15.388-34.056 27.098-54.611 34.252-20.551 7.155-42.457 9.57-64.071 7.064zM373.333 768c0 25.131 6.869 32 32.002 32h213.331c25.131 0 32-6.869 32-32v-42.667c0-25.131-6.869-32-32-32h-213.331c-25.132 0-32.002 6.869-32.002 32v42.667zM821.335 192c0-67.285-28.715-96-96-96h-426.668c-67.285 0-96 28.715-96 96v426.666c0 67.285 28.715 96 96 96h11.52c0.158-12.010 2.804-23.856 7.771-34.79s12.149-20.721 21.090-28.74c8.941-8.019 19.448-14.097 30.857-17.85s23.472-5.099 35.429-3.954h213.331c11.957-1.145 24.021 0.201 35.43 3.954s21.914 9.83 30.858 17.85c8.94 8.019 16.12 17.805 21.087 28.74 4.97 10.935 7.617 22.781 7.775 34.79h11.52c67.285 0 96-28.715 96-96v-426.666zM650.665 384c0-8.487-3.371-16.628-9.37-22.626-6.002-6.002-14.143-9.374-22.63-9.374h-74.665v-74.665c0-8.487-3.371-16.628-9.374-22.63-6.002-5.998-14.139-9.37-22.626-9.37s-16.628 3.371-22.626 9.37c-6.002 6.002-9.374 14.143-9.374 22.63v74.665h-74.665c-8.487 0-16.628 3.371-22.629 9.374-6.001 5.998-9.373 14.139-9.373 22.626s3.372 16.624 9.373 22.626c6.001 6.002 14.141 9.374 22.629 9.374h74.665v74.665c0 8.487 3.371 16.628 9.374 22.626 5.998 6.002 14.139 9.374 22.626 9.374s16.624-3.371 22.626-9.374c6.002-5.998 9.374-14.139 9.374-22.626v-74.665h74.665c8.487 0 16.628-3.371 22.63-9.374 5.998-6.002 9.37-14.139 9.37-22.626z" />
<glyph unicode="&#xe921;" glyph-name="dashboard" d="M384 352h-128c-25.461 0-49.879 10.114-67.882 28.117s-28.118 42.421-28.118 67.883v320c0 25.461 10.114 49.879 28.118 67.882s42.421 28.118 67.882 28.118h128c25.462 0 49.881-10.114 67.883-28.118s28.117-42.421 28.117-67.882v-320c0-25.462-10.114-49.881-28.117-67.883s-42.421-28.117-67.883-28.117zM256 800c-8.487 0-16.626-3.371-22.627-9.373s-9.373-14.14-9.373-22.627v-320c0-8.487 3.371-16.628 9.373-22.626 6.001-6.002 14.14-9.374 22.627-9.374h128c8.487 0 16.628 3.371 22.626 9.374 6.002 5.998 9.374 14.139 9.374 22.626v320c0 8.487-3.371 16.626-9.374 22.627-5.998 6.001-14.139 9.373-22.626 9.373h-128zM384 32h-128c-25.461 0-49.879 10.114-67.882 28.117s-28.118 42.421-28.118 67.883v64c0 25.462 10.114 49.881 28.118 67.883s42.421 28.117 67.882 28.117h128c25.462 0 49.881-10.114 67.883-28.117s28.117-42.421 28.117-67.883v-64c0-25.462-10.114-49.881-28.117-67.883s-42.421-28.117-67.883-28.117zM256 224c-8.487 0-16.626-3.371-22.627-9.374-6.001-5.998-9.373-14.139-9.373-22.626v-64c0-8.487 3.371-16.628 9.373-22.626 6.001-6.002 14.14-9.374 22.627-9.374h128c8.487 0 16.628 3.371 22.626 9.374 6.002 5.998 9.374 14.139 9.374 22.626v64c0 8.487-3.371 16.628-9.374 22.626-5.998 6.002-14.139 9.374-22.626 9.374h-128zM768 32h-128c-25.462 0-49.881 10.114-67.883 28.117s-28.117 42.421-28.117 67.883v320c0 25.462 10.114 49.881 28.117 67.883s42.421 28.117 67.883 28.117h128c25.462 0 49.881-10.114 67.883-28.117s28.117-42.421 28.117-67.883v-320c0-25.462-10.114-49.881-28.117-67.883s-42.421-28.117-67.883-28.117zM640 480c-8.487 0-16.628-3.371-22.626-9.374-6.002-5.998-9.374-14.139-9.374-22.626v-320c0-8.487 3.371-16.628 9.374-22.626 5.998-6.002 14.139-9.374 22.626-9.374h128c8.487 0 16.628 3.371 22.626 9.374 6.002 5.998 9.374 14.139 9.374 22.626v320c0 8.487-3.371 16.628-9.374 22.626-5.998 6.002-14.139 9.374-22.626 9.374h-128zM768 608h-128c-25.462 0-49.881 10.114-67.883 28.118s-28.117 42.421-28.117 67.882v64c0 25.461 10.114 49.879 28.117 67.882s42.421 28.118 67.883 28.118h128c25.462 0 49.881-10.114 67.883-28.118s28.117-42.421 28.117-67.882v-64c0-25.461-10.114-49.879-28.117-67.882s-42.421-28.118-67.883-28.118zM640 800c-8.487 0-16.628-3.371-22.626-9.373-6.002-6.001-9.374-14.14-9.374-22.627v-64c0-8.487 3.371-16.626 9.374-22.627 5.998-6.001 14.139-9.373 22.626-9.373h128c8.487 0 16.628 3.371 22.626 9.373 6.002 6.001 9.374 14.14 9.374 22.627v64c0 8.487-3.371 16.626-9.374 22.627-5.998 6.001-14.139 9.373-22.626 9.373h-128z" />
<glyph unicode="&#xe922;" glyph-name="delete" d="M672 32h-320c-42.419 0.051-83.086 16.925-113.081 46.921s-46.868 70.663-46.919 113.079v512c0 8.487 3.371 16.626 9.373 22.627s14.141 9.373 22.627 9.373h576c8.485 0 16.625-3.371 22.63-9.373 5.998-6.001 9.37-14.141 9.37-22.627v-512c-0.051-42.416-16.925-83.083-46.921-113.079s-70.66-46.87-113.079-46.921zM256 672v-480c0-25.461 10.114-49.876 28.118-67.884 18.003-18 42.421-28.116 67.882-28.116h320c25.461 0 49.879 10.116 67.884 28.116 18 18.008 28.116 42.423 28.116 67.884v480h-512zM672 672h-320c-8.487 0-16.626 3.371-22.627 9.373s-9.373 14.141-9.373 22.627v64c0 25.461 10.114 49.879 28.118 67.882s42.421 28.118 67.882 28.118h192c25.461 0 49.879-10.114 67.882-28.118s28.118-42.421 28.118-67.882v-64c0-8.487-3.371-16.626-9.373-22.627s-14.141-9.373-22.627-9.373zM384 736h256v32c0 8.487-3.371 16.626-9.373 22.627s-14.141 9.373-22.627 9.373h-192c-8.487 0-16.626-3.371-22.627-9.373s-9.373-14.141-9.373-22.627v-32zM864 672h-689.089c-8.487 0-16.626 3.371-22.627 9.373s-9.373 14.141-9.373 22.627c0 8.487 3.371 16.626 9.373 22.627s14.141 9.373 22.627 9.373h689.089c8.485 0 16.625-3.371 22.623-9.373 6.005-6.001 9.377-14.141 9.377-22.627s-3.372-16.626-9.377-22.627c-5.998-6.001-14.139-9.373-22.623-9.373zM416 224c-8.487 0-16.626 3.372-22.627 9.373s-9.373 14.141-9.373 22.627v256c0 8.487 3.371 16.626 9.373 22.627s14.141 9.373 22.627 9.373c8.487 0 16.626-3.371 22.627-9.373s9.373-14.141 9.373-22.627v-256c0-8.487-3.371-16.626-9.373-22.627s-14.141-9.373-22.627-9.373zM608 224c-8.487 0-16.626 3.372-22.627 9.373s-9.373 14.141-9.373 22.627v256c0 8.487 3.371 16.626 9.373 22.627s14.141 9.373 22.627 9.373c8.487 0 16.626-3.371 22.627-9.373s9.373-14.141 9.373-22.627v-256c0-8.487-3.371-16.626-9.373-22.627s-14.141-9.373-22.627-9.373z" />
<glyph unicode="&#xe923;" glyph-name="home" d="M754.63-7.11h-485.261c-40.186 0.077-78.705 16.070-107.121 44.486s-44.413 66.938-44.488 107.123v445.723c0.080 24.835 6.272 49.269 18.028 71.146s28.717 40.523 49.385 54.294l241.493 161.849c25.146 17.17 54.885 26.355 85.334 26.355s60.188-9.185 85.333-26.355l242.628-161.849c20.512-13.868 37.306-32.557 48.909-54.428 11.61-21.871 17.67-46.254 17.651-71.012v-445.723c-0.070-40.237-16.109-78.797-44.589-107.226-28.474-28.422-67.066-44.384-107.302-44.384zM512 842.524c-17.929-0.050-35.444-5.393-50.347-15.36l-242.916-161.849c-12.369-8.25-22.522-19.412-29.565-32.506s-10.76-27.719-10.826-42.587v-445.723c0-24.141 9.59-47.296 26.66-64.365s40.222-26.656 64.363-26.656h485.261c24.141 0 47.296 9.587 64.365 26.656s26.656 40.224 26.656 64.365v445.723c0.032 14.964-3.642 29.704-10.688 42.905s-17.254 24.454-29.702 32.757l-242.915 161.28c-14.895 9.982-32.415 15.327-50.346 15.36zM390.543 205.37h242.632v-60.589h-242.632v60.589z" />
<glyph unicode="&#xe924;" glyph-name="like" d="M74.667-21.338h106.666c41.174 0 74.667 33.498 74.667 74.669v490.666c0 41.173-33.493 74.667-74.667 74.667h-106.666c-41.174 0-74.667-33.494-74.667-74.667v-490.666c0-41.171 33.493-74.669 74.667-74.669zM545.323 928c-42.667 0-64-21.333-64-128 0-101.376-98.176-182.954-161.323-224.981v-528.555c68.309-31.616 205.056-78.464 417.325-78.464h68.262c83.2 0 154.029 59.731 168.109 141.651l47.789 277.336c17.92 104.533-62.298 199.68-168.109 199.68h-201.389c0 0 32 64 32 170.666 0 128-95.998 170.667-138.664 170.667z" />
<glyph unicode="&#xe925;" glyph-name="boat" d="M976.991 51.988c-31.839 0-46.198 7.125-64.382 16.144-7.507 3.722-15.376 7.621-24.462 11.091l97.43 255.319c7.582 19.873 6.325 42.106-3.454 61.003-9.779 18.893-27.231 32.815-47.876 38.187l-67.088 17.459v200.427c0 42.064-34.355 76.284-76.583 76.284h-132.403v74.162c0 59.040-48.219 107.072-107.488 107.072h-74.307c-59.27 0-107.488-48.032-107.488-107.072v-74.16h-132.406c-42.227 0-76.581-34.221-76.581-76.284v-200.429l-67.089-17.459c-20.648-5.372-38.1-19.295-47.877-38.187-9.777-18.897-11.039-41.129-3.454-61.003l97.431-255.323c-9.084-3.47-16.954-7.365-24.456-11.087-18.187-9.019-32.55-16.148-64.39-16.148-15.931 0-28.846-12.863-28.846-28.731 0-15.872 12.915-28.735 28.846-28.735 45.408 0 69.154 11.776 90.104 22.166 18.187 9.019 32.55 16.144 64.39 16.144s46.204-7.121 64.391-16.144c20.95-10.39 44.696-22.166 90.104-22.166 45.405 0 69.15 11.776 90.102 22.166 18.184 9.019 32.547 16.144 64.386 16.144 31.835 0 46.198-7.121 64.382-16.144 20.949-10.39 44.694-22.166 90.1-22.166s69.148 11.776 90.1 22.166c18.184 9.019 32.547 16.144 64.382 16.144 31.839 0 46.198-7.121 64.382-16.144 20.953-10.39 44.698-22.166 90.1-22.166 15.931 0 28.849 12.863 28.849 28.735 0 15.868-12.918 28.735-28.849 28.735zM426.583 802.063c0 27.351 22.335 49.603 49.794 49.603h74.307c27.455 0 49.794-22.252 49.794-49.603v-74.16h-173.895v74.16zM217.592 651.617c0 10.375 8.473 18.815 18.888 18.815h554.095c10.413 0 18.889-8.44 18.889-18.815v-185.41l-288.646 75.126c-4.781 1.245-9.803 1.245-14.584 0l-288.644-75.126 0.002 185.41zM732.408 68.131c-18.184-9.019-32.547-16.144-64.382-16.144s-46.198 7.125-64.382 16.144c-20.953 10.39-44.698 22.17-90.1 22.17-45.407 0-69.152-11.78-90.104-22.17-18.184-9.019-32.547-16.144-64.384-16.144-31.839 0-46.204 7.125-64.388 16.144-20.95 10.39-44.696 22.17-90.104 22.17-2.783 0-5.483-0.047-8.108-0.13l-101.048 264.791c-2.425 6.353-0.534 11.654 0.808 14.245 1.342 2.595 4.579 7.203 11.181 8.921l406.132 105.704 406.134-105.704c6.601-1.717 9.838-6.325 11.181-8.921 1.339-2.592 3.23-7.893 0.807-14.245l-101.045-264.795c-2.623 0.083-5.321 0.13-8.097 0.13-45.407 0.004-69.152-11.776-90.1-22.166zM780.213 336.786l-259.395 67.513c-4.781 1.245-9.803 1.245-14.584 0l-259.394-67.513c-15.414-4.013-24.644-19.712-20.617-35.068 4.027-15.352 19.789-24.544 35.202-20.535l252.104 65.615 252.101-65.615c2.442-0.638 4.896-0.941 7.31-0.941 12.808 0 24.501 8.558 27.888 21.476 4.029 15.356-5.199 31.055-20.614 35.068z" />
<glyph unicode="&#xe926;" glyph-name="bus" d="M867.383 666.37h-15.384v30.65c0 84.502-69.014 153.25-153.844 153.25h-369.232c-84.831 0-153.846-68.748-153.846-153.25v-30.65h-15.384c-42.431 0-76.923-34.389-76.923-76.625v-76.626c0-16.92 13.754-30.649 30.769-30.649s30.769 13.729 30.769 30.649v76.626c0 8.459 6.923 15.325 15.385 15.325h15.384v-306.499c0-49.869 24.4-93.822 61.538-121.805v-62.098c0-33.804 27.6-61.298 61.538-61.298h61.538c33.939 0 61.538 27.494 61.538 61.298v30.653h184.615v-30.653c0-33.804 27.601-61.298 61.538-61.298h61.538c33.938 0 61.538 27.494 61.538 61.298v62.098c37.14 28.014 61.538 71.968 61.538 121.805v306.499h15.384c8.464 0 15.388-6.866 15.388-15.325v-76.626c0-16.92 13.753-30.649 30.767-30.649s30.771 13.729 30.771 30.649v76.626c0 42.236-34.493 76.625-76.926 76.625zM236.615 666.37h553.846v-225.738c-27.845-12.564-58.309-19.46-88.891-19.46h-376.062c-30.554 0-61.046 6.896-88.892 19.46v225.738zM328.923 788.969h369.232c40.058 0 73.905-25.715 86.646-61.3h-542.525c12.739 35.585 46.585 61.3 86.646 61.3zM359.692 114.668h-61.538v33.749c9.939-2.024 20.246-3.096 30.769-3.096h30.769v-30.653zM728.923 114.668h-61.538v30.653h30.771c10.52 0 20.831 1.071 30.767 3.096v-33.749zM698.155 206.62h-369.232c-50.892 0-92.308 41.255-92.308 91.951v76.193c28.616-9.622 58.739-14.895 88.892-14.895h376.094c30.153 0 60.274 5.274 88.891 14.895v-76.193c0-50.696-41.448-91.951-92.337-91.951zM328.923 267.922c16.994 0 30.769 13.722 30.769 30.649s-13.776 30.649-30.769 30.649c-16.993 0-30.769-13.722-30.769-30.649s13.776-30.649 30.769-30.649zM698.155 267.922c16.991 0 30.767 13.722 30.767 30.649s-13.777 30.649-30.767 30.649c-16.994 0-30.771-13.722-30.771-30.649s13.777-30.649 30.771-30.649z" />
<glyph unicode="&#xe927;" glyph-name="menu" d="M298.667 501.333h-170.667c-19.796 0.021-38.775 7.898-52.772 21.892-13.998 14-21.872 32.978-21.894 52.774v170.667c0.023 19.796 7.896 38.775 21.894 52.772s32.976 21.872 52.772 21.894h170.667c19.796-0.023 38.775-7.896 52.772-21.894s21.872-32.976 21.894-52.772v-170.667c-0.023-19.796-7.896-38.775-21.894-52.774-13.998-13.995-32.976-21.871-52.772-21.892zM128 757.333c-2.829 0-5.542-1.124-7.543-3.124s-3.124-4.714-3.124-7.543v-170.667c0-2.829 1.124-5.542 3.124-7.543s4.714-3.124 7.543-3.124h170.667c2.829 0 5.542 1.124 7.543 3.124s3.124 4.714 3.124 7.543v170.667c0 2.829-1.124 5.542-3.124 7.543s-4.714 3.124-7.543 3.124h-170.667zM298.667 74.667h-170.667c-19.796 0.021-38.775 7.898-52.772 21.892-13.998 13.999-21.872 32.977-21.894 52.774v170.667c0.023 19.797 7.896 38.775 21.894 52.774 13.998 13.995 32.976 21.871 52.772 21.892h170.667c19.796-0.021 38.775-7.898 52.772-21.892 13.998-13.999 21.872-32.977 21.894-52.774v-170.667c-0.023-19.797-7.896-38.775-21.894-52.774-13.998-13.995-32.976-21.871-52.772-21.892zM128 330.667c-2.829 0-5.542-1.122-7.543-3.123s-3.124-4.715-3.124-7.543v-170.667c0-2.829 1.124-5.542 3.124-7.543s4.714-3.123 7.543-3.123h170.667c2.829 0 5.542 1.122 7.543 3.123s3.124 4.715 3.124 7.543v170.667c0 2.829-1.124 5.542-3.124 7.543s-4.714 3.123-7.543 3.123h-170.667zM938.667 714.667h-426.667c-8.486 0-16.627 3.372-22.626 9.373-6.003 6.001-9.374 14.141-9.374 22.627s3.371 16.626 9.374 22.627c5.999 6.001 14.14 9.373 22.626 9.373h426.667c8.486 0 16.627-3.372 22.626-9.373 6.003-6.001 9.374-14.141 9.374-22.627s-3.371-16.626-9.374-22.627c-5.999-6.001-14.14-9.373-22.626-9.373zM768 544h-256c-8.486 0-16.627 3.372-22.626 9.373-6.003 6.001-9.374 14.141-9.374 22.627s3.371 16.626 9.374 22.627c5.999 6.001 14.14 9.373 22.626 9.373h256c8.486 0 16.627-3.372 22.626-9.373 6.003-6.001 9.374-14.141 9.374-22.627s-3.371-16.626-9.374-22.627c-5.999-6.001-14.14-9.373-22.626-9.373zM938.667 288h-426.667c-8.486 0-16.627 3.371-22.626 9.374-6.003 5.999-9.374 14.14-9.374 22.626s3.371 16.627 9.374 22.626c5.999 6.003 14.14 9.374 22.626 9.374h426.667c8.486 0 16.627-3.371 22.626-9.374 6.003-5.999 9.374-14.14 9.374-22.626s-3.371-16.627-9.374-22.626c-5.999-6.003-14.14-9.374-22.626-9.374zM768 117.333h-256c-8.486 0-16.627 3.371-22.626 9.374-6.003 5.999-9.374 14.14-9.374 22.626s3.371 16.627 9.374 22.626c5.999 6.003 14.14 9.374 22.626 9.374h256c8.486 0 16.627-3.371 22.626-9.374 6.003-5.999 9.374-14.14 9.374-22.626s-3.371-16.627-9.374-22.626c-5.999-6.003-14.14-9.374-22.626-9.374z" />
<glyph unicode="&#xe928;" glyph-name="pin" d="M511.999 739.875c-104.824 0-190.106-85.282-190.106-190.106 0-104.826 85.282-190.105 190.106-190.105 104.822 0 190.106 85.279 190.106 190.105 0 104.824-85.279 190.106-190.106 190.106zM511.999 439.706c-60.688 0-110.062 49.375-110.062 110.064s49.374 110.062 110.062 110.062c60.688 0 110.060-49.374 110.060-110.062s-49.372-110.064-110.060-110.064zM511.999 960c-226.202 0-410.23-184.030-410.23-410.23v-11.34c0-114.402 65.588-247.711 194.948-396.227 93.776-107.663 186.242-182.733 190.13-185.876l25.152-20.326 25.15 20.321c3.891 3.144 96.358 78.218 190.131 185.882 129.357 148.516 194.949 281.825 194.949 396.225v11.34c0 226.202-184.028 410.232-410.231 410.232zM842.184 538.428c0-193.33-249.103-427.36-330.185-498.405-81.106 71.066-330.186 305.091-330.186 498.405v11.34c0 182.064 148.122 330.186 330.186 330.186s330.185-148.122 330.185-330.186v-11.34z" />
<glyph unicode="&#xe929;" glyph-name="search" d="M446.549 854.987c-200.436 0-363.71-163.274-363.71-363.711 0-200.439 163.274-364.031 363.71-364.031 85.613 0 164.348 30.003 226.58 79.818l151.498-151.417c7.648-7.33 17.855-11.372 28.446-11.264s20.717 4.36 28.214 11.841c7.491 7.486 11.76 17.602 11.884 28.192 0.119 10.59-3.907 20.809-11.226 28.462l-151.498 151.503c49.853 62.324 79.894 141.184 79.894 226.896 0 200.437-163.355 363.711-363.791 363.711zM446.549 774.144c156.749 0 282.868-126.122 282.868-282.868s-126.119-283.183-282.868-283.183c-156.746 0-282.868 126.437-282.868 283.183s126.122 282.868 282.868 282.868z" />
<glyph unicode="&#xe92a;" glyph-name="check" d="M1000.201 792.631c-31.676 31.724-83.123 31.705-114.85 0l-516.931-516.949-229.752 229.751c-31.725 31.725-83.151 31.725-114.876 0s-31.725-83.151 0-114.875l287.178-287.176c15.853-15.855 36.64-23.799 57.428-23.799s41.596 7.927 57.448 23.799l574.356 574.376c31.727 31.702 31.727 83.151 0 114.873z" />
<glyph unicode="&#xe92b;" glyph-name="main-menu" d="M0 729.6h1024v-102.4h-1024v102.4zM0 268.8h819.2v-102.4h-819.2v102.4z" />
<glyph unicode="&#xe92c;" glyph-name="office" d="M964.813 94.488h-101.289v124.4c25.974 6.593 49.010 21.602 65.493 42.665 16.479 21.059 25.462 46.978 25.541 73.681v92.767c0 31.972-12.749 62.637-35.446 85.248-22.697 22.607-53.48 35.308-85.579 35.308s-62.881-12.702-85.579-35.308c-22.697-22.611-35.446-53.276-35.446-85.248v-92.605c0.079-26.419 8.885-52.082 25.053-73.027 16.171-20.945 38.81-36.009 64.425-42.87v-125.011h-163.324v622.195c0 99.469-54.359 154.231-153.151 154.231h-255.424c-99.077 0-153.641-54.762-153.641-154.231v-622.195h-14.195c-8.16 0-15.987-3.23-21.757-8.976-5.77-5.75-9.012-13.544-9.012-21.673s3.242-15.923 9.012-21.673c5.77-5.746 13.597-8.976 21.757-8.976h768.123c0.819 0 1.56-0.449 2.379-0.449s1.56 0.406 2.379 0.449h129.682c8.16 0 15.986 3.23 21.76 8.976 5.77 5.75 9.011 13.544 9.011 21.673s-3.241 15.923-9.011 21.673c-5.774 5.746-13.6 8.976-21.76 8.976zM577.122 94.488h-186.667v122.6c0 8.129-3.242 15.923-9.012 21.673-5.771 5.746-13.597 8.976-21.757 8.976s-15.987-3.23-21.757-8.976c-5.77-5.75-9.012-13.544-9.012-21.673v-122.6h-190.81v622.195c0 65.142 27.569 92.931 92.102 92.931h255.427c64.205 0 91.609-27.789 91.609-92.931l-0.122-622.195zM833.532 276.098c-15.774 0.012-30.897 6.258-42.051 17.369s-17.424 26.179-17.436 41.889v92.644c0 15.714 6.266 30.787 17.424 41.901 11.154 11.114 26.285 17.357 42.063 17.357s30.909-6.242 42.063-17.357c11.158-11.114 17.424-26.187 17.424-41.901v-92.605c0-15.718-6.266-30.795-17.42-41.913s-26.285-17.373-42.067-17.384zM493.021 625.714c0-8.129-3.241-15.925-9.015-21.673-5.77-5.748-13.596-8.977-21.756-8.977h-203.076c-4.238-0.345-8.502 0.187-12.523 1.566s-7.711 3.572-10.838 6.443c-3.127 2.87-5.623 6.355-7.33 10.234s-2.588 8.069-2.588 12.305c0 4.236 0.881 8.426 2.588 12.305s4.203 7.364 7.33 10.234c3.127 2.87 6.817 5.064 10.838 6.442s8.285 1.912 12.523 1.566h203.076c8.125 0 15.919-3.201 21.685-8.905s9.031-13.447 9.086-21.541zM493.021 472.505c0-8.129-3.241-15.927-9.015-21.673-5.77-5.746-13.596-8.976-21.756-8.976h-203.076c-8.16 0-15.987 3.23-21.757 8.976s-9.012 13.544-9.012 21.673c0 8.129 3.242 15.923 9.012 21.673 5.77 5.746 13.597 8.976 21.757 8.976h203.076c8.16 0 15.986-3.23 21.756-8.976 5.774-5.75 9.015-13.544 9.015-21.673z" />
<glyph unicode="&#xe92d;" glyph-name="price-tag" d="M444.034-31.502c-0.024 0-0.051 0-0.082 0-30.041 0.024-58.289 11.745-79.524 33.014l-299.085 299.513c-43.746 43.827-43.746 115.142 0 158.966l403.171 403.944c41.551 41.631 96.833 64.564 155.662 64.564h255.792c62.027 0 112.5-50.461 112.5-112.5v-255.005c0-58.788-22.91-114.046-64.502-155.59l-404.425-404.006c-21.248-21.217-49.483-32.901-79.507-32.901zM624.176 853.5c-38.765 0-75.196-15.111-102.574-42.545l-403.179-403.946c-14.584-14.612-14.584-38.38 0-52.992l299.086-299.513c7.072-7.083 16.483-10.998 26.501-11.005h0.031c10.008 0 19.418 3.898 26.494 10.964l404.429 403.999c27.409 27.375 42.503 63.795 42.503 102.533v255.005c0 20.678-16.824 37.5-37.499 37.5h-255.792zM720.585 547.874c-62.034 0-112.5 50.463-112.5 112.501s50.466 112.5 112.5 112.5 112.5-50.461 112.5-112.5c0-62.038-50.466-112.501-112.5-112.501zM720.585 697.875c-20.678 0-37.499-16.822-37.499-37.5s16.821-37.5 37.499-37.5c20.685 0 37.499 16.822 37.499 37.5s-16.814 37.5-37.499 37.5z" />
<glyph unicode="&#xe92e;" glyph-name="bank" d="M981.358 55.166h-10.665v96c-0.024 19.799-7.897 38.774-21.894 52.775-13.997 13.997-32.977 21.87-52.771 21.894h-10.669v234.665h10.669c19.795 0.024 38.774 7.897 52.771 21.894s21.87 32.977 21.894 52.771v141.783c-0.469 14.807-5.124 29.177-13.434 41.442-8.306 12.265-19.925 21.922-33.501 27.848l-384 153.6c-17.9 6.592-37.565 6.592-55.465 0l-384.001-153.6c-13.58-5.922-25.199-15.578-33.508-27.844s-12.964-26.639-13.425-41.447v-141.783c0.022-19.795 7.896-38.774 21.894-52.771s32.976-21.87 52.772-21.894h10.667v-234.665h-10.667c-19.796-0.024-38.775-7.897-52.772-21.894-13.998-14.001-21.872-32.977-21.894-52.775v-96h-10.667c-8.487 0-16.626-3.371-22.627-9.37-6.001-6.002-9.373-14.143-9.373-22.63s3.371-16.624 9.373-22.626c6.001-6.002 14.14-9.374 22.627-9.374h938.666c8.487 0 16.628 3.371 22.626 9.374 6.002 6.002 9.374 14.139 9.374 22.626s-3.371 16.628-9.374 22.63c-5.998 5.998-14.139 9.37-22.626 9.37zM128.026 524.501c-2.819 0.032-5.512 1.17-7.506 3.163s-3.128 4.687-3.161 7.503v141.783c0.404 2.023 1.203 3.947 2.353 5.66s2.627 3.183 4.346 4.324l383.701 153.6c1.402 0.288 2.836 0.417 4.269 0.384 1.43 0.038 2.863-0.091 4.265-0.384l384-153.6c3.426-2.302 5.817-5.856 6.656-9.899v-141.868c-0.035-2.816-1.17-5.51-3.163-7.503s-4.687-3.131-7.503-3.163h-768.258zM821.358 460.501v-234.665h-106.665v234.665h106.665zM650.693 460.501v-234.665h-106.665v234.665h106.665zM480.028 460.501v-234.665h-106.669v234.665h106.669zM309.359 460.501v-234.665h-106.667v234.665h106.667zM906.693 55.166h-789.334v96c0 2.832 1.124 5.545 3.124 7.542 2 2.001 4.714 3.127 7.543 3.127h768.002c2.828 0 5.541-1.126 7.542-3.127 2.001-1.997 3.123-4.71 3.123-7.542v-96zM512.028 759.168c-18.987 0-37.549-5.63-53.339-16.179-15.785-10.549-28.089-25.542-35.356-43.084s-9.169-36.844-5.463-55.466c3.702-18.622 12.847-35.728 26.273-49.154s30.531-22.569 49.152-26.273c18.621-3.705 37.923-1.803 55.465 5.463s32.536 19.571 43.087 35.358c10.547 15.787 16.179 34.348 16.179 53.335-0.035 25.45-10.161 49.849-28.156 67.845-17.999 17.996-42.394 28.121-67.844 28.155zM512.028 631.168c-6.329 0-12.516 1.877-17.778 5.393-5.266 3.516-9.366 8.514-11.788 14.361s-3.056 12.281-1.82 18.489c1.233 6.207 4.281 11.909 8.755 16.384 4.478 4.475 10.177 7.523 16.384 8.758 6.211 1.235 12.642 0.601 18.491-1.821 5.845-2.422 10.843-6.523 14.36-11.786s5.396-11.449 5.396-17.778c-0.024-8.48-3.403-16.606-9.401-22.602-5.994-5.996-14.119-9.375-22.599-9.398z" />
<glyph unicode="&#xe92f;" glyph-name="beach" d="M976.998 20.799h-41.783l-78.568 156.522c-4.884 9.736-14.876 15.884-25.801 15.884h-187.234l-134.703 400.453 300.918 100.204c17.227 5.738 24.942 25.778 15.888 41.531-77.607 135.009-237.229 205.548-417.154 157.217l-9.417 28.064c-5.049 15.049-21.391 23.177-36.505 18.143-15.11-5.032-23.264-21.311-18.212-36.362l9.418-28.064c-172.727-69.083-257.908-220.937-238.377-375.506 2.283-18.058 20.581-29.377 37.767-23.666l300.957 100.218 128.575-382.231h-281.078l-232.833 166.991c-12.931 9.271-30.958 6.349-40.265-6.53-9.31-12.879-6.373-30.834 6.554-40.109l223.344-160.185-42.884-132.573h-165.527c-15.931 0-28.846-12.867-28.846-28.735s12.915-28.735 28.846-28.735h926.922c15.931 0 28.849 12.867 28.849 28.735s-12.918 28.735-28.849 28.735zM399.206 829.804c0.004 0.002 0.008 0.002 0.012 0.004 0.193-0.027 34.257 15.807 94.913-42.902 31.346-30.338 59.041-70.738 77.221-111.859l-216.231-72.005c-22.879 97.172-3.54 210.883 44.085 226.762zM756.129 736.575l-129.867-43.243c-24.891 58.241-67.789 118.456-117.213 156.824 97.847 3.371 188.258-34.73 247.079-113.581zM299.186 780.282c-16.446-60.702-14.1-134.515 1.065-195.51l-129.905-43.26c-0.59 95.859 46.534 181.406 128.84 238.771zM813.017 135.739l57.695-114.94h-169.11l-38.66 114.94h150.075zM313.396 135.739h288.7l38.66-114.94h-364.539l37.179 114.94z" />
<glyph unicode="&#xe930;" glyph-name="menu-1" d="M806.81 760.228h-48.081v114.964c0 21.449-10.417 41.758-27.865 54.327s-40.074 16.064-60.522 9.344l-471.157-154.794c-27.648-9.086-46.223-34.675-46.223-63.673v-691.926c0-36.97 30.194-67.048 67.308-67.048h586.541c37.112 0 67.304 30.078 67.304 67.048v664.71c0 36.968-30.192 67.047-67.304 67.047zM816.423 28.471c0-5.281-4.313-9.578-9.614-9.578h-586.541c-5.302 0-9.615 4.297-9.615 9.578v664.71c0 5.281 4.313 9.578 9.615 9.578h586.541c5.301 0 9.614-4.297 9.614-9.578v-664.71zM688.412 884.288c4.061 1.334 7.16-0.264 8.649-1.335 1.485-1.071 3.982-3.502 3.982-7.76v-114.966h-390.239l377.608 124.062zM321.231 370.444h384.616c15.931 0 28.845 12.863 28.845 28.735 0 15.868-12.914 28.731-28.845 28.731h-8.357c-12.434 79.305-75.492 142.119-155.104 154.506v14.398c0 15.869-12.914 28.735-28.845 28.735s-28.849-12.865-28.849-28.735v-14.398c-79.608-12.386-142.67-75.201-155.104-154.506h-8.356c-15.931 0-28.846-12.863-28.846-28.731 0-15.872 12.915-28.735 28.846-28.735zM513.54 527.175c60.936 0 112.1-42.476 125.231-99.265h-250.465c13.13 56.789 64.294 99.265 125.234 99.265zM332.423 292.817c-15.931 0-28.846-12.863-28.846-28.735 0-15.868 12.915-28.735 28.846-28.735h138.463c15.927 0 28.845 12.867 28.845 28.735 0 15.872-12.918 28.735-28.845 28.735h-138.463zM698.636 177.877h-370.193c-15.931 0-28.846-12.867-28.846-28.735 0-15.872 12.915-28.735 28.846-28.735h370.193c15.931 0 28.845 12.863 28.845 28.735 0 15.868-12.914 28.735-28.845 28.735z" />
<glyph unicode="&#xe931;" glyph-name="pin-2" d="M815.060 834.3c-80.66 81.007-188.119 125.619-302.585 125.619h-0.492c-230.497 4.718-432.713-198.273-427.968-428.685 6.034-162.7 162.553-369.323 284.441-528.067 35.796-42.759 87.951-67.168 143.985-67.168 57.996 0 111.845 26.132 147.732 71.697 90.423 112.367 285.672 382.624 279.777 523.54 0.003 114.547-44.353 222.176-124.89 303.062zM597.333 57.197c-41.335-54.525-128.287-54.624-169.639-0.096-165.273 210.452-263.688 385.713-263.688 474.136 0 192.266 156.101 348.685 347.977 348.685h0.492c191.604 0 347.484-156.421 347.484-348.685 0-89.382-95.724-262.164-262.625-474.040zM514.229 361.967c-93.73 0-169.987 76.257-169.987 169.987 9.339 225.513 330.673 225.447 339.978 0 0-93.734-76.257-169.987-169.991-169.987zM514.229 621.949c-49.623 0-89.993-40.371-89.993-89.994 4.943-119.388 175.063-119.354 179.988 0 0 49.623-40.369 89.994-89.996 89.994z" />
<glyph unicode="&#xe932;" glyph-name="plus" d="M455.111 960h113.779v-1024h-113.779v1024zM0 391.111v113.779h1024v-113.779h-1024z" />
<glyph unicode="&#xe933;" glyph-name="reservation" d="M823.642 715c0.038 0 0.083 0 0.122 0 5.626 0 18.682-1.811 21.555-18.131l44.602-252.818c3.834-21.756 24.595-36.272 46.342-32.444 21.754 3.84 36.282 24.586 32.442 46.342l-44.602 252.816c-8.762 49.666-49.965 84.234-100.314 84.234-0.179 0-0.352 0.001-0.525-0.002-1.869-0.008-3.725-0.064-5.562-0.168-1.216 0.114-2.451 0.17-3.699 0.17h-623.011c-49.246 0-90.752-35.276-98.692-83.874l-91.776-561.673c-1.892-11.584 1.396-23.418 8.996-32.358 7.602-8.941 18.744-14.099 30.48-14.099h632c19.629 0 36.352 14.24 39.488 33.613l90.643 560.054c2.746 16.47 15.955 18.31 21.51 18.339zM723.194 709.626l-85.24-526.625h-550.888l84.188 515.224c1.588 9.718 9.888 16.774 19.738 16.774h533.232c-0.384-1.77-0.73-3.562-1.030-5.374zM1014.643 115.29c-7.597-9.056-18.816-14.291-30.643-14.291h-152c-22.093 0-40 17.907-40 40s17.907 40 40 40h104.326l-14.298 81.050c-3.84 21.754 10.688 42.502 32.442 46.342s42.502-10.688 46.342-32.442l22.586-128c2.048-11.648-1.158-23.603-8.755-32.659zM208 449c0 22.092 17.908 40 40 40h312c22.092 0 40-17.908 40-40s-17.908-40-40-40h-312c-22.092 0-40 17.908-40 40z" />
<glyph unicode="&#xe934;" glyph-name="share" d="M550.998 841.666c0 22.092 17.908 40 40 40h193.341c88.141 0 160-71.676 160-160v-194.666c0-22.092-17.907-40-40-40s-40 17.908-40 40c-0.832 203.085 1.894 197.206-2.445 214.328l-478.943-478.947c-15.622-15.622-40.95-15.616-56.57 0-15.622 15.622-15.622 40.947 0 56.57l479.711 479.709c-18.694 5.288-14.477 1.996-215.095 3.004-22.092 0.002-40 17.91-40 40.002zM984 330.666c-22.093 0-40-17.911-40-39.997v-57.926c0-100.749-69.024-149.402-75.322-158.163-37.779-37.773-88-58.579-141.421-58.579h-430.514c-53.421 0-103.645 20.806-141.42 58.579-6.090 8.467-75.324 57.952-75.324 158.163v430.514c0 100.749 69.022 149.402 75.324 158.166 37.774 37.774 87.998 58.578 141.42 58.578h57.923c22.092 0 40 17.908 40 40s-17.908 40-40 40h-57.923c-74.792 0-145.106-29.126-197.99-82.010-6.006-8.512-98.754-77.978-98.754-214.733v-430.514c0-136.768 92.81-206.31 98.754-214.733 52.884-52.883 123.2-82.010 197.99-82.010h430.514c74.79 0 145.107 29.126 197.99 82.010 6.003 8.512 98.752 77.978 98.752 214.733v57.926c0 22.086-17.907 39.997-40 39.997z" />
<glyph unicode="&#xe935;" glyph-name="sort-down" d="M287.989 736l-0.003-498.688 41.376 41.313 45.255-45.249-118.628-118.63-118.628 118.63 45.255 45.249 41.369-41.313 0.003 498.688h64zM575.989 256v-64h-160v64h160zM671.989 416v-64h-256v64h256zM767.989 576v-64h-352v64h352zM863.989 736v-64h-448v64h448z" />
<glyph unicode="&#xe936;" glyph-name="star-2" d="M347.273 385.498c3.096-2.997 4.502-7.373 3.782-11.622l-10.156-59.156c-5-29.157 6.75-58.064 30.688-75.438 13.53-9.813 29.314-14.814 45.251-14.814 12.25 0 24.562 2.97 35.97 8.97l53.122 27.938c3.813 2 8.376 2 12.189 0l53.125-27.938c26.249-13.814 57.344-11.53 81.22 5.844 23.934 17.374 35.686 46.281 30.686 75.438l-10.155 59.156c-0.72 4.25 0.686 8.625 3.779 11.622l43.001 41.909c21.156 20.623 28.655 50.906 19.5 79.029-9.124 28.126-32.969 48.22-62.249 52.47l-59.44 8.625c-4.25 0.625-7.905 3.311-9.844 7.188l-26.593 53.843c-13.063 26.5-39.561 42.969-69.123 42.969s-56.064-16.469-69.127-42.969l-26.593-53.843c-1.935-3.878-5.594-6.564-9.875-7.188l-59.406-8.625c-29.282-4.25-53.125-24.344-62.25-52.47-9.156-28.122-1.656-58.406 19.5-79.029l42.999-41.909zM345.617 486.656c0.969 2.908 3.594 7.905 10.595 8.936l59.375 8.625c25.156 3.625 46.872 19.408 58.092 42.189l26.593 53.842c3.127 6.345 8.721 7.284 11.752 7.284s8.625-0.939 11.749-7.284l26.593-53.842c11.22-22.781 32.939-38.564 58.064-42.189l59.406-8.625c7.001-1.031 9.626-6.028 10.595-8.936 0.935-2.874 1.748-8.468-3.345-13.438l-43.001-41.905c-18.156-17.719-26.436-43.25-22.156-68.25l10.158-59.156c1.188-7.001-2.782-11.063-5.219-12.844-2.471-1.812-7.595-4.219-13.814-1l-53.156 27.969c-22.436 11.752-49.312 11.752-71.748 0 0 0 0-0.031-0.034-0.031l-53.125-27.938c-6.185-3.249-11.312-0.812-13.81 1-2.437 1.782-6.407 5.844-5.219 12.844l10.155 59.156c4.284 24.999-4 50.531-22.156 68.25l-42.998 41.905c-5.096 4.97-4.284 10.564-3.345 13.438zM101.733 307.186c0-59.249 31.875-114.47 83.219-144.094l243.875-140.814c25.655-14.81 54.405-22.217 83.186-22.217 28.751 0 57.532 7.407 83.19 22.217l243.872 140.814c51.343 29.624 83.22 84.845 83.22 144.094v281.624c0 59.251-31.877 114.47-83.22 144.095l-243.872 140.813c-51.251 29.594-115.002 29.625-166.376 0l-243.875-140.813c-51.344-29.625-83.219-84.844-83.219-144.095v-281.624zM165.733 588.81c0 36.47 19.625 70.439 51.219 88.658l243.875 140.813c15.78 9.125 33.498 13.687 51.186 13.687s35.407-4.563 51.19-13.687l243.872-140.813c31.594-18.219 51.22-52.187 51.22-88.658v-281.624c0-36.468-19.627-70.438-51.22-88.655l-243.872-140.814c-31.563-18.251-70.813-18.251-102.376 0l-243.875 140.814c-31.594 18.217-51.219 52.186-51.219 88.655v281.624z" />
<glyph unicode="&#xe937;" glyph-name="teamwork" d="M869.248 183.895c28.923 30.193 46.751 71.091 46.751 116.106 0 79.672-55.767 146.519-130.299 163.681-12.109 93.376-71.066 172.246-152.448 212.214 28.918 30.192 46.746 71.092 46.746 116.104 0 92.636-75.361 168-167.997 168s-168-75.364-168-168c0-45.012 17.828-85.912 46.75-116.104-81.382-39.968-140.34-118.838-152.446-212.214-74.538-17.162-130.304-84.008-130.304-163.681 0-45.015 17.828-85.914 46.75-116.106-91.566-44.969-154.75-139.187-154.75-247.895h80c0 108.073 87.924 195.999 196 195.999s196-87.926 196-195.999h79.997c0 108.073 87.926 195.999 196.004 195.999 108.073 0 195.999-87.926 195.999-195.999h80c0 108.708-63.186 202.926-154.752 247.895zM512 880c48.522 0 88.003-39.476 88.003-88s-39.48-88-88.003-88c-48.524 0-88 39.476-88 88s39.476 88 88 88zM276 211.999c-48.524 0-87.999 39.475-87.999 88.003 0 48.522 39.476 87.997 87.999 87.997s88.001-39.475 88.001-87.997c0-48.527-39.476-88.003-88.001-88.003zM626.749 183.895c-47.508-23.332-87.383-59.914-114.749-104.909-27.364 44.995-67.24 81.577-114.75 104.909 28.922 30.193 46.75 71.091 46.75 116.106 0 77.763-53.122 143.334-124.976 162.391 16.304 91.734 96.632 161.608 192.976 161.608 96.343 0 176.671-69.874 192.978-161.608-71.854-19.056-124.979-84.628-124.979-162.391 0-45.015 17.828-85.914 46.751-116.106zM748.001 211.999c-48.527 0-88.003 39.475-88.003 88.003 0 48.522 39.475 87.997 88.003 87.997 48.522 0 87.997-39.475 87.997-87.997 0-48.527-39.475-88.003-87.997-88.003z" />
<glyph unicode="&#xe938;" glyph-name="translate" d="M272 568h80v-80h80v200c0 66.168-53.832 120-120 120s-120-53.832-120-120v-200h80v80zM312 728c22.056 0 40-17.944 40-40v-40h-80v40c0 22.056 17.944 40 40 40zM672 408.003v-80.005h-80v-79.995h80v-40.003c0-22.057-17.946-40.003-39.997-40.003h-40.003v-79.995h40.003c30.71 0 58.752 11.607 79.995 30.653 21.248-19.046 49.29-30.653 80.005-30.653h39.997v79.995h-39.997c-22.057 0-40.003 17.946-40.003 40.003v40.003h80v79.995h-80v80.005h-80zM472 327.997c66.168 0 120 53.837 120 120.003v392c0 66.168-53.832 120-120 120h-320c-66.168 0-120-53.832-120-120v-392c0-66.166 53.832-120.003 120-120.003h320zM112 448v392c0 22.056 17.944 40 40 40h320c22.056 0 40-17.944 40-40v-392c0-22.057-17.944-39.997-40-39.997h-320c-22.056 0-40 17.94-40 39.997zM871.997 568h-199.997v-80h199.997c22.057 0 40.003-17.944 40.003-40v-391.997c0-22.057-17.946-40.003-40.003-40.003h-320c-22.052 0-39.997 17.946-39.997 40.003v192h-80v-192c0-66.171 53.832-120.003 119.997-120.003h320c66.171 0 120.003 53.832 120.003 120.003v391.997c0 66.168-53.832 120-120.003 120zM192 128v120.003h-80v-120.003c0-66.166 53.832-120.003 120-120.003h120v80.005h-120c-22.056 0-40 17.94-40 39.997zM832 768v-120h80v120c0 66.168-53.832 120-119.997 120h-120.003v-80h120.003c22.052 0 39.997-17.944 39.997-40z" />
<glyph unicode="&#xe939;" glyph-name="utensils" d="M352 800c-52.375 0-91.625-38.75-118-82s-42-94.499-42-142c0-82.624 57-142.874 128-157v-355h64v355c71.002 14.126 128 74.376 128 157 0 47.501-15.626 98.749-41.999 142-26.376 43.25-65.626 82-118.001 82zM576 800v-224c0-59.251 40.998-108.749 96-123v-389h64v389c55.002 14.252 96 63.749 96 123v224h-64v-224c0-35.75-28.25-64-64-64s-64 28.25-64 64v224h-64zM672 800v-224c0-17.626 14.374-32 32-32s32 14.374 32 32v224h-64zM352 736c18.376 0 43-18.125 63.002-51 19.999-32.876 32.998-76.874 32.998-109 0-64.125-40-96-96-96s-96 31.875-96 96c0 32.125 13 76.124 33.001 109 19.999 32.875 44.623 51 62.999 51z" />
<glyph unicode="&#xe93a;" glyph-name="application" d="M746.667 490.667h-149.333c-11.315 0-22.17 4.495-30.17 12.496s-12.496 18.855-12.496 30.17v149.333c0 37.974 11.261 75.095 32.358 106.669s51.084 56.183 86.166 70.715c35.082 14.532 73.687 18.334 110.933 10.926 37.243-7.408 71.455-25.695 98.307-52.546 26.849-26.852 45.138-61.063 52.545-98.307 7.41-37.244 3.608-75.849-10.926-110.933-14.531-35.082-39.141-65.068-70.714-86.166s-68.697-32.358-106.67-32.358zM640 576h106.667c21.098 0 41.721 6.257 59.262 17.978 17.541 11.718 31.212 28.378 39.284 47.869s10.185 40.938 6.072 61.629c-4.116 20.692-14.278 39.698-29.194 54.615s-33.925 25.076-54.613 29.192c-20.692 4.116-42.141 2.004-61.631-6.070s-36.151-21.745-47.869-39.286c-11.721-17.541-17.978-38.164-17.978-59.261v-106.667zM746.667 21.333c-50.886 0.113-99.659 20.378-135.639 56.361-35.983 35.98-56.248 84.753-56.361 135.639v149.333c0 11.315 4.495 22.17 12.496 30.17s18.855 12.496 30.17 12.496h149.333c50.92 0 99.758-20.227 135.765-56.235s56.235-84.845 56.235-135.765c0-50.92-20.227-99.758-56.235-135.765s-84.845-56.235-135.765-56.235zM640 320v-106.667c0-21.098 6.257-41.721 17.978-59.262 11.718-17.541 28.378-31.212 47.869-39.284s40.94-10.185 61.631-6.072c20.688 4.116 39.697 14.278 54.613 29.194s25.078 33.925 29.194 54.613c4.113 20.692 2 42.141-6.072 61.631s-21.743 36.151-39.284 47.869c-17.541 11.721-38.164 17.978-59.262 17.978h-106.667zM426.667 490.667h-149.333c-37.974 0-75.095 11.261-106.669 32.358s-56.183 51.084-70.715 86.166c-14.532 35.084-18.334 73.688-10.926 110.933s25.695 71.455 52.546 98.307c26.852 26.852 61.063 45.138 98.307 52.546s75.849 3.606 110.933-10.926c35.082-14.532 65.068-39.141 86.166-70.715s32.358-68.695 32.358-106.669v-149.333c0-11.315-4.495-22.17-12.496-30.17s-18.855-12.496-30.17-12.496zM277.333 789.333c-28.29 0-55.421-11.238-75.425-31.242s-31.242-47.135-31.242-75.425c0-28.29 11.238-55.421 31.242-75.424 20.004-20.006 47.135-31.242 75.425-31.242h106.667v106.667c0 28.29-11.237 55.421-31.242 75.425-20.003 20.004-47.135 31.242-75.424 31.242zM277.333 21.333c-50.921 0-99.757 20.227-135.765 56.235s-56.235 84.845-56.235 135.765c0 50.92 20.228 99.758 56.235 135.765s84.843 56.235 135.765 56.235h149.333c11.315 0 22.17-4.495 30.17-12.496s12.496-18.855 12.496-30.17v-149.333c-0.113-50.886-20.378-99.659-56.361-135.639-35.98-35.983-84.752-56.248-135.639-56.361zM277.333 320c-21.097 0-41.719-6.257-59.261-17.978-17.541-11.718-31.213-28.378-39.286-47.869s-10.186-40.94-6.070-61.631c4.115-20.688 14.275-39.697 29.192-54.613s33.924-25.078 54.615-29.194c20.691-4.113 42.139-2 61.629 6.072s36.151 21.743 47.869 39.284c11.721 17.541 17.978 38.164 17.978 59.262v106.667h-106.667z" />
<glyph unicode="&#xe93b;" glyph-name="bed" d="M272 528.002h80c22.091 0 40.001 17.906 40.001 39.997 0 22.095-17.91 40.001-40.001 40.001h-80c-22.092 0-40-17.906-40-40.001 0-22.091 17.908-39.997 40-39.997zM672 528.002h79.998c22.095 0 40.001 17.906 40.001 39.997 0 22.095-17.906 40.001-40.001 40.001h-79.998c-22.091 0-40.001-17.906-40.001-40.001 0-22.091 17.91-39.997 40.001-39.997zM512 608c22.091 0 40.001 17.909 40.001 40s-17.91 40-40.001 40c-22.091 0-40.001-17.909-40.001-40s17.91-40 40.001-40zM904.001 448h-784.001c-66.168 0-120-53.832-120-119.999v-80.002c0-52.145 33.444-96.608 80-113.118v-46.882c0-22.091 17.908-40.001 40-40.001s40 17.91 40 40.001v40.001h704v-40.001c0-22.091 17.906-40.001 40.001-40.001 22.091 0 39.997 17.91 39.997 40.001v46.882c46.558 16.51 80.002 60.972 80.002 113.118v80.002c0 66.167-53.832 119.999-119.999 119.999zM943.998 247.999c0-22.054-17.944-39.997-39.997-39.997h-784.001c-22.056 0-40 17.944-40 39.997v80.002c0 22.054 17.944 39.997 40 39.997h784.001c22.054 0 39.997-17.944 39.997-39.997v-80.002zM112 528.002c22.092 0 40 17.906 40 39.997 0 66.169 53.832 120.001 120 120.001h101.405c14.278 0 27.474 7.612 34.625 19.97 21.419 37.028 61.259 60.030 103.97 60.030s82.551-23.002 103.974-60.030c7.148-12.36 20.343-19.97 34.621-19.97h101.403c66.171 0 120.003-53.832 120.003-120.001 0-22.091 17.906-39.997 40.001-39.997 22.091 0 39.997 17.906 39.997 39.997 0 110.281-89.716 200.001-200.001 200.001h-79.995c-37.502 49.852-96.867 80-160.003 80s-122.501-30.146-160-80h-80c-110.28 0-200-89.72-200-200.001 0-22.091 17.908-39.997 40-39.997z" />
<glyph unicode="&#xe93c;" glyph-name="birthday-cake" d="M952.003 16v360.003c0 66.166-53.837 119.997-120.003 119.997h-120.003v120.38c46.556 16.512 80.005 60.974 80.005 113.12 0 16.474-4.71 46.49-45.404 116.64-20.552 35.434-40.832 64.858-41.687 66.094l-32.911 47.766-32.911-47.766c-0.855-1.236-21.13-30.66-41.687-66.094-40.694-70.15-45.404-100.166-45.404-116.64 0-52.146 33.449-96.608 80.005-113.12v-120.38h-240.003v120.38c46.556 16.512 80 60.974 80 113.12 0 16.474-4.708 46.49-45.4 116.64-20.554 35.434-40.834 64.858-41.688 66.094l-32.912 47.766-32.912-47.766c-0.854-1.236-21.132-30.66-41.688-66.094-40.694-70.15-45.4-100.166-45.4-116.64 0-52.146 33.444-96.608 80-113.12v-120.38h-120c-66.168 0-120-53.832-120-119.997v-360.003h-72v-80h1024v80h-71.997zM666.793 806.326c1.736 2.996 3.482 5.952 5.207 8.848 1.644-2.758 3.308-5.574 4.966-8.426 33.966-58.418 35.005-76.358 35.031-77.28-0.015-22.042-17.956-39.968-39.997-39.968-22.057 0-39.997 17.944-39.997 39.954 0.015 0.726 0.865 18.45 34.79 76.872zM346.792 806.326c1.738 2.996 3.48 5.952 5.208 8.848 1.646-2.758 3.306-5.574 4.964-8.426 33.968-58.418 35.006-76.358 35.036-77.28-0.018-22.042-17.956-39.968-40-39.968-22.056 0-40 17.944-40 39.954 0.020 0.726 0.866 18.45 34.792 76.872zM871.997 16h-719.997v163.983c39.356 8.305 64.138 28.099 84.988 44.785 23.51 18.806 39.044 31.232 75.012 31.232s51.502-12.426 75.012-31.232c27.158-21.729 60.956-48.768 124.988-48.768s97.828 27.039 124.989 48.768c23.511 18.806 39.040 31.232 75.008 31.232 35.973 0 51.502-12.426 75.013-31.232 20.854-16.681 45.635-36.48 84.987-44.785v-163.983zM871.997 263.552c-12.262 5.484-22.508 13.681-35.011 23.68-27.156 21.729-60.954 48.768-124.989 48.768-64.031 0-97.828-27.039-124.984-48.768-23.511-18.806-39.045-31.232-75.013-31.232s-51.502 12.426-75.012 31.232c-27.158 21.729-60.956 48.768-124.988 48.768s-97.83-27.039-124.988-48.768c-12.502-9.999-22.748-18.196-35.012-23.68v112.451c0 22.052 17.944 39.997 40 39.997h640c22.057 0 39.997-17.946 39.997-39.997v-112.451zM312 96c22.091 0 40 17.91 40 39.997 0 22.093-17.909 40.003-40 40.003s-40-17.91-40-40.003c0-22.088 17.909-39.997 40-39.997zM711.997 96c22.093 0 40.003 17.91 40.003 39.997 0 22.093-17.91 40.003-40.003 40.003-22.088 0-39.997-17.91-39.997-40.003 0-22.088 17.91-39.997 39.997-39.997z" />
<glyph unicode="&#xe93d;" glyph-name="dislike" d="M949.331 917.336h-106.662c-41.178 0-74.669-33.493-74.669-74.666v-490.668c0-41.173 33.491-74.664 74.669-74.664h106.662c41.178 0 74.669 33.491 74.669 74.664v490.668c0 41.173-33.491 74.666-74.669 74.666zM218.406 928c-83.2 0-154.026-59.733-168.107-141.653l-47.787-277.333c-17.92-104.534 62.293-199.683 168.107-199.683h201.387c0 0-32-64-32-170.662 0-128 96-170.669 138.667-170.669s64 21.331 64 128c0 101.376 98.178 182.957 161.32 224.982v528.554c-68.307 31.616-205.054 78.464-417.321 78.464h-68.267z" />
<glyph unicode="&#xe93e;" glyph-name="minus" d="M0 391.11v113.778h1024v-113.778h-1024z" />
<glyph unicode="&#xe93f;" glyph-name="online-support" d="M853.333 778.667h-142.080c-7.294 36.141-26.88 68.64-55.426 91.975s-64.29 36.064-101.161 36.025h-341.333c-42.435 0-83.131-16.857-113.137-46.863s-46.863-70.702-46.863-113.137v-597.333c0-42.435 16.857-83.132 46.863-113.138 30.006-30.003 70.702-46.862 113.137-46.862h341.333c42.435 0 83.132 16.858 113.138 46.862 30.003 30.007 46.862 70.704 46.862 113.138v104.533h138.667c31.119 0 60.962 12.363 82.968 34.365 22.002 22.006 34.365 51.849 34.365 82.968v290.133c0 31.119-12.363 60.963-34.365 82.967-22.006 22.004-51.849 34.366-82.968 34.366zM650.667 149.333c0-25.46-10.114-49.879-28.119-67.881-18.002-18.005-42.421-28.119-67.881-28.119h-341.333c-25.461 0-49.879 10.114-67.882 28.119-18.003 18.002-28.118 42.421-28.118 67.881v597.333c0 25.461 10.114 49.879 28.118 67.882s42.422 28.118 67.882 28.118h341.333c19.784-0.038 39.069-6.214 55.197-17.678 16.125-11.463 28.293-27.649 34.83-46.322h-218.027c-31.119 0-60.962-12.362-82.968-34.366-22.004-22.004-34.365-51.849-34.365-82.967v-290.133c0-31.119 12.362-60.962 34.365-82.968 22.006-22.002 51.849-34.365 82.968-34.365h25.173v-83.2c-0.014-6.079 1.703-12.035 4.953-17.176 3.249-5.137 7.895-9.243 13.394-11.837 4.256-2.048 8.933-3.069 13.653-2.987 7.656 0.010 15.063 2.731 20.907 7.68l123.733 107.52h22.187v-104.533zM906.667 371.2c0-14.145-5.618-27.709-15.619-37.714-10.004-10.001-23.569-15.619-37.714-15.619h-236.8c-7.632-0.15-14.991-2.854-20.907-7.68l-79.787-69.547v45.227c-0.109 8.451-3.516 16.527-9.496 22.504-5.977 5.977-14.053 9.387-22.504 9.496h-57.173c-14.145 0-27.709 5.618-37.714 15.619-10.001 10.004-15.619 23.569-15.619 37.714v290.133c0 14.145 5.618 27.71 15.619 37.712 10.004 10.002 23.569 15.621 37.714 15.621h426.667c14.145 0 27.709-5.619 37.714-15.621 10.001-10.002 15.619-23.567 15.619-37.712v-290.133zM800 597.333c-0.109-8.451-3.516-16.527-9.496-22.504-5.977-5.98-14.053-9.387-22.504-9.496h-256c-8.486 0-16.626 3.372-22.627 9.373s-9.373 14.141-9.373 22.627c0 8.486 3.372 16.626 9.373 22.627s14.141 9.373 22.627 9.373h256c8.451-0.111 16.527-3.517 22.504-9.495 5.98-5.978 9.387-14.054 9.496-22.505zM800 426.667c-0.109-8.451-3.516-16.527-9.496-22.504-5.977-5.98-14.053-9.387-22.504-9.496h-256c-8.486 0-16.626 3.372-22.627 9.373s-9.373 14.141-9.373 22.627c0 8.486 3.372 16.626 9.373 22.627s14.141 9.373 22.627 9.373h256c8.451-0.109 16.527-3.519 22.504-9.496 5.98-5.977 9.387-14.053 9.496-22.504z" />
<glyph unicode="&#xe940;" glyph-name="hot-air-balloon" d="M899.399 573.305c0 213.227-173.477 386.695-386.702 386.695-213.228 0-386.697-173.469-386.697-386.695 0-88.476 62.055-213.967 184.437-372.998 36.641-47.612 73.023-90.852 103.436-125.535v-108.296c0-16.829 13.643-30.476 30.48-30.476h136.692c16.837 0 30.48 13.647 30.48 30.476v108.296c30.413 34.682 66.796 77.922 103.436 125.535 122.384 159.031 184.438 284.522 184.438 372.998zM838.447 573.305c0-84.687-78.805-212.959-165.096-326.788h-38.274c46.222 138.874 69.64 248.702 69.64 326.788 0 99.391-17.762 193.321-50.030 264.469-6.148 13.547-12.725 26.016-19.688 37.422 119.19-48.453 203.449-165.508 203.449-301.891zM550.569-3.048h-75.741v58.892h75.741v-58.892zM567.493 116.795h-109.336c-17.806 20.346-37.62 43.571-58.203 68.758h32.717c0.087 0 0.173-0.004 0.252-0.004 0.083 0 192.52 0.004 192.52 0.004-19.905-24.474-39.507-47.632-57.951-68.758zM512.697 899.047c30.047 0 61.562-31.508 86.473-86.445 28.759-63.414 44.595-148.398 44.595-239.297 0-73.99-25.218-186.733-73.007-326.788h-116.11c-47.805 140.071-73.023 252.774-73.023 326.788 0 90.899 15.844 175.883 44.603 239.297 24.911 54.938 56.426 86.445 86.469 86.445zM186.953 573.305c0 136.383 84.258 253.438 203.445 301.891-6.961-11.407-13.547-23.875-19.688-37.422-32.265-71.148-50.031-165.078-50.031-264.469 0-78.11 23.414-187.922 69.633-326.788h-38.461c-107.898 141.781-164.898 254.657-164.898 326.788z" />
<glyph unicode="&#xe941;" glyph-name="menu-3" d="M816.998 769.991h-49.999v120.028c0 22.394-10.835 43.598-28.979 56.72s-41.677 16.772-62.944 9.756l-490.004-161.612c-28.754-9.486-48.072-36.202-48.072-66.478v-722.403c0-38.601 31.402-70.002 70-70.002h609.998c38.601 0 70.002 31.401 70.002 70.002v693.989c0 38.596-31.401 70-70.002 70zM826.998 6.002c0-5.514-4.486-10-10-10h-609.998c-5.514 0-10 4.486-10 10v693.989c0 5.514 4.486 10 10 10h609.998c5.514 0 10-4.486 10-10v-693.989zM693.866 899.515c4.226 1.392 7.448-0.276 8.995-1.394s4.139-3.656 4.139-8.102v-120.030h-405.845l392.71 129.526zM312 363.040h399.999c16.569 0 29.999 13.43 29.999 29.999 0 16.565-13.43 29.999-29.999 29.999h-8.688c-12.934 82.794-78.513 148.378-161.312 161.31v15.032c0 16.568-13.43 30-29.999 30s-29.999-13.432-29.999-30v-15.032c-82.798-12.932-148.379-78.516-161.311-161.31h-8.69c-16.568 0-30-13.434-30-29.999 0-16.569 13.432-29.999 30-29.999zM512 526.675c63.378 0 116.586-44.347 130.241-103.637h-260.483c13.656 59.29 66.868 103.637 130.242 103.637zM323.616 281.99c-16.568 0-30-13.43-30-29.999s13.432-29.999 30-29.999h143.998c16.569 0 30.003 13.43 30.003 29.999s-13.434 29.999-30.003 29.999h-143.998zM704.54 161.989h-385.001c-16.568 0-30-13.43-30-29.999s13.432-29.999 30-29.999h385.001c16.565 0 29.999 13.43 29.999 29.999s-13.434 29.999-29.999 29.999z" />
<glyph unicode="&#xe942;" glyph-name="mountain" d="M922.923 209.313l-256 398.203c-3.013 4.442-7.050 8.095-11.768 10.65-4.722 2.556-9.988 3.939-15.352 4.035-5.396-0.033-10.693-1.43-15.403-4.059s-8.676-6.407-11.536-10.981l-142.206-227.552c-2.225-3.564-3.73-7.53-4.423-11.678-0.693-4.143-0.563-8.385 0.382-12.481s2.686-7.964 5.128-11.386c2.442-3.423 5.53-6.329 9.094-8.554 3.564-2.229 7.534-3.734 11.678-4.427 4.147-0.693 8.389-0.563 12.481 0.382 8.271 1.91 15.447 7.026 19.944 14.226l115.436 184.734 197.018-306.424h-651.658l262.266 419.625 43.969-70.374c2.19-3.637 5.081-6.801 8.507-9.311 3.426-2.505 7.318-4.309 11.449-5.297 4.128-0.989 8.413-1.146 12.603-0.461 4.191 0.681 8.204 2.194 11.804 4.443s6.719 5.193 9.169 8.659c2.454 3.466 4.191 7.386 5.112 11.53s1.012 8.431 0.26 12.61c-0.752 4.179-2.328 8.166-4.632 11.731l-71.101 113.805c-2.879 4.604-6.877 8.4-11.626 11.032-4.746 2.632-10.086 4.013-15.514 4.013s-10.768-1.381-15.518-4.013c-4.746-2.632-8.747-6.428-11.622-11.032l-320-512c-3.027-4.844-4.703-10.409-4.853-16.12s1.232-11.359 4.001-16.352c2.77-4.998 6.826-9.161 11.748-12.060s10.531-4.427 16.243-4.427h768.001c5.746-0.004 11.39 1.544 16.333 4.478 4.947 2.93 9.007 7.14 11.764 12.19 2.753 5.045 4.096 10.736 3.891 16.482-0.209 5.746-1.957 11.327-5.069 16.163z" />
<glyph unicode="&#xe943;" glyph-name="add-button" d="M512-10.667c-90.716 0-179.394 26.903-254.821 77.301s-134.216 122.032-168.932 205.841c-34.715 83.809-43.798 176.034-26.101 265.006s61.381 170.699 125.528 234.845c64.146 64.146 145.872 107.829 234.845 125.528s181.197 8.615 265.006-26.101c83.809-34.716 155.443-93.504 205.841-168.932s77.301-164.106 77.301-254.821c-0.137-121.606-48.503-238.188-134.491-324.176s-202.57-134.354-324.176-134.491zM512 842.667c-78.057 0-154.362-23.147-219.265-66.513s-115.488-105.006-145.36-177.121c-29.871-72.116-37.687-151.47-22.459-228.025 15.228-76.561 52.816-146.881 108.012-202.081 55.195-55.194 125.518-92.78 202.076-108.009s155.912-7.413 228.030 22.46c72.112 29.872 133.751 80.458 177.118 145.357 43.366 64.905 66.514 141.21 66.514 219.267-0.114 104.637-41.728 204.956-115.718 278.947s-174.313 115.607-278.949 115.72zM512 245.333c-8.487 0-16.626 3.374-22.628 9.375-6.001 5.996-9.372 14.137-9.372 22.625v341.333c0 8.487 3.371 16.626 9.372 22.628s14.141 9.372 22.628 9.372c8.487 0 16.626-3.371 22.628-9.372s9.372-14.141 9.372-22.628v-341.333c0-8.488-3.371-16.629-9.372-22.625-6.001-6.002-14.141-9.375-22.628-9.375zM682.667 416h-341.333c-8.487 0-16.626 3.371-22.628 9.372s-9.372 14.141-9.372 22.628c0 8.487 3.371 16.626 9.372 22.628s14.141 9.372 22.628 9.372h341.333c8.488 0 16.629-3.371 22.625-9.372 6.002-6.001 9.375-14.141 9.375-22.628s-3.374-16.626-9.375-22.628c-5.996-6.001-14.137-9.372-22.625-9.372z" />
<glyph unicode="&#xe944;" glyph-name="viber" d="M486.315 959.915c-82.133-1.109-258.859-14.592-357.717-105.173-73.387-72.96-99.029-180.523-102.016-313.728-2.56-132.693-5.547-381.867 234.667-449.749v-103.253c0 0-1.621-41.387 25.685-49.92 33.707-10.667 52.907 21.291 84.907 55.424l59.733 67.413c164.267-13.653 290.133 17.877 304.64 22.571 33.28 10.667 221.056 34.603 251.776 283.819 31.573 257.323-15.36 419.456-99.84 492.843l-0.427 0.085c-25.6 23.467-128 98.133-357.12 98.987 0 0-16.896 1.067-44.288 0.683zM489.173 887.509c23.253 0.128 37.547-0.853 37.547-0.853 193.707-0.427 286.336-58.88 308.096-78.507 71.253-60.971 107.861-207.189 81.067-422.059-25.6-208.213-177.92-221.44-206.080-230.4-11.947-3.84-122.88-31.147-262.485-22.187 0 0-104.064-125.483-136.491-157.909-5.12-5.547-11.093-7.253-14.933-6.4-5.547 1.28-7.253 8.107-6.827 17.493l0.853 171.477c-203.563 56.32-191.616 268.885-189.483 379.819 2.56 110.933 23.467 201.899 85.333 263.339 83.499 75.52 233.6 85.76 303.403 86.187zM504.533 776.576c-0.013 0-0.028 0-0.043 0-7.046 0-12.757-5.712-12.757-12.757 0 0 0 0 0 0v0c0-7.069 5.731-12.8 12.8-12.8v0c1.364 0.028 2.971 0.044 4.583 0.044 65.1 0 124.152-25.892 167.421-67.939l-0.057 0.055c46.507-45.227 69.163-105.813 70.016-185.173 0-7.069 5.731-12.8 12.8-12.8v0 0.384c7.069 0 12.8 5.731 12.8 12.8v0c0.157 3.48 0.247 7.56 0.247 11.662 0 74.43-29.543 141.961-77.544 191.504l0.070-0.072c-50.773 49.493-114.859 75.093-190.336 75.093zM335.829 747.136c-1.727 0.259-3.721 0.408-5.748 0.408-7.549 0-14.619-2.053-20.681-5.631l0.19 0.104h-0.512c-17.493-10.24-33.621-23.040-48.981-40.107-11.52-13.653-17.963-27.264-19.669-40.491-0.279-2.039-0.438-4.396-0.438-6.791 0-5.823 0.941-11.426 2.678-16.666l-0.107 0.374 0.853-0.427c14.645-42.578 31.945-79.22 52.671-113.56l-1.471 2.627c28.652-51.472 61.491-95.882 99.246-135.571l-0.26 0.275 1.28-1.707 1.707-1.28 2.56-2.56c39.559-37.583 84.086-70.554 132.337-97.686l3.343-1.728c56.32-30.72 90.539-45.227 111.019-51.2v-0.427c5.973-1.707 11.435-2.56 16.981-2.56 18.235 1.369 34.519 8.773 47.083 20.196l-0.064-0.057c16.64 14.933 29.867 31.488 39.68 48.981v0.427c9.813 18.347 6.4 35.883-7.68 47.829-27.026 23.744-57.036 45.466-88.997 64.222l-2.736 1.484c-21.76 11.947-43.947 4.693-52.907-7.253l-19.2-24.277c-9.813-11.947-27.733-10.24-27.733-10.24l-0.512-0.427c-133.12 34.133-168.533 168.917-168.533 168.917s-1.707 18.347 10.667 27.733l23.893 19.2c11.52 9.387 19.627 31.573 7.253 53.333-20.207 34.7-41.93 64.712-66.261 92.376l0.555-0.643c-5.305 6.541-12.762 11.155-21.28 12.765l-0.224 0.035zM526.677 709.163c-7.051-0.024-12.757-5.746-12.757-12.8 0-7.069 5.731-12.8 12.8-12.8 0.015 0 0.030 0 0.045 0h-0.002c44.424-0.795 84.345-19.431 113.026-49.025l0.041-0.042c23.999-26.399 38.693-61.631 38.693-100.296 0-3.292-0.107-6.56-0.316-9.799l0.023 0.441c0.024-7.051 5.746-12.757 12.8-12.757 0 0 0 0 0 0v0l0.427-0.512c0 0 0 0 0 0 7.069 0 12.8 5.731 12.8 12.8 0 0.015 0 0.030 0 0.045v-0.002c1.28 50.773-14.507 93.44-45.653 127.573s-74.667 53.333-130.133 57.173c-0.268 0.020-0.581 0.031-0.896 0.031s-0.628-0.011-0.937-0.034l0.041 0.002zM547.584 640.085c-0.114 0.004-0.249 0.006-0.384 0.006-7.202 0-13.040-5.838-13.040-13.040 0-7.067 5.621-12.821 12.637-13.034h0.020c42.24-2.133 62.72-23.467 65.28-67.413 0.237-6.883 5.874-12.373 12.793-12.373 0.002 0 0.005 0 0.007 0h0.426c6.896 0.221 12.402 5.864 12.402 12.794 0 0.302-0.010 0.602-0.031 0.9l0.002-0.040c-2.987 57.173-34.133 89.216-89.6 92.203-0.076 0.002-0.166 0.003-0.256 0.003s-0.18-0.001-0.269-0.003h0.013z" />
<glyph unicode="&#xe945;" glyph-name="telegram" d="M679.429 204l84 396c7.429 34.857-12.571 48.571-35.429 40l-493.714-190.286c-33.714-13.143-33.143-32-5.714-40.571l126.286-39.429 293.143 184.571c13.714 9.143 26.286 4 16-5.143l-237.143-214.286-9.143-130.286c13.143 0 18.857 5.714 25.714 12.571l61.714 59.429 128-94.286c23.429-13.143 40-6.286 46.286 21.714zM1024 438.857c0-282.857-229.143-512-512-512s-512 229.143-512 512 229.143 512 512 512 512-229.143 512-512z" />
<glyph unicode="&#xe946;" glyph-name="whatsapp" horiz-adv-x="878" d="M562.857 394.286c9.714 0 102.857-48.571 106.857-55.429 1.143-2.857 1.143-6.286 1.143-8.571 0-14.286-4.571-30.286-9.714-43.429-13.143-32-66.286-52.571-98.857-52.571-27.429 0-84 24-108.571 35.429-81.714 37.143-132.571 100.571-181.714 173.143-21.714 32-41.143 71.429-40.571 110.857v4.571c1.143 37.714 14.857 64.571 42.286 90.286 8.571 8 17.714 12.571 29.714 12.571 6.857 0 13.714-1.714 21.143-1.714 15.429 0 18.286-4.571 24-19.429 4-9.714 33.143-87.429 33.143-93.143 0-21.714-39.429-46.286-39.429-59.429 0-2.857 1.143-5.714 2.857-8.571 12.571-26.857 36.571-57.714 58.286-78.286 26.286-25.143 54.286-41.714 86.286-57.714 4-2.286 8-4 12.571-4 17.143 0 45.714 55.429 60.571 55.429zM446.857 91.428c197.714 0 358.857 161.143 358.857 358.857s-161.143 358.857-358.857 358.857-358.857-161.143-358.857-358.857c0-75.429 24-149.143 68.571-210.286l-45.143-133.143 138.286 44c58.286-38.286 127.429-59.429 197.143-59.429zM446.857 881.143c237.714 0 430.857-193.143 430.857-430.857s-193.143-430.857-430.857-430.857c-72.571 0-144.571 18.286-208.571 53.714l-238.286-76.571 77.714 231.429c-40.571 66.857-61.714 144-61.714 222.286 0 237.714 193.143 430.857 430.857 430.857z" />
</font>
</defs>
</svg>
